<?xml version="1.0" standalone="no"?>
<!DOCTYPE svg PUBLIC "-//W3C//DTD SVG 1.1//EN" "http://www.w3.org/Graphics/SVG/1.1/DTD/svg11.dtd" >
<svg xmlns="http://www.w3.org/2000/svg">
<metadata></metadata>
<defs>
<font id="thaisans_neuelight" horiz-adv-x="0" >
<font-face units-per-em="2048" ascent="1534" descent="-514" />
<missing-glyph horiz-adv-x="659" />
<glyph unicode="&#x3b;&#x3b;arm&#x3b;&#x3b;" horiz-adv-x="2119" d="M76 1270v82h327v164q-23 0 -45 13t-39.5 35.5t-27.5 52.5t-10 62q0 37 14 67t36.5 51.5t52.5 33.5t60 12q78 0 121 -43t43 -121q0 -27 -8 -55.5t-23.5 -52t-38 -38.5t-53.5 -17v-164h328v-82h-328v-246l220 -492h-82l-179 410l-178 -410h-82l219 492v246h-327zM158 0 q0 23 8 48.5t25.5 47t44 34.5t65.5 13q61 0 102 -41t41 -102q0 -14 -7 -51t-48 -66l45 -209l113 226h41l112 -226l72 428h102l-32 -172l22 41l133 31q0 106 12.5 181t37 120t63.5 65.5t92 20.5q61 0 92 -41t31 -102h-41q0 31 -15.5 56.5t-45.5 25.5q-78 0 -111 -76t-33 -229 l150 36l18 -75l-168 -43v-82q0 -123 -6 -224.5t-29.5 -175t-68.5 -113.5t-121 -40q-61 0 -102 30.5t-41 92.5h41q0 -31 25.5 -46.5t56.5 -15.5q61 0 94 37t48 101.5t18 154.5t3 199v61l-163 -41l-70 -368h-53l-144 307l-143 -307h-53l-66 327l37 25q-4 -2 -12 -2 q-8 -2 -29 -2q-18 0 -44 7t-47.5 23.5t-36.5 43t-15 67.5zM240 0q0 -23 15 -41t46 -18q61 0 61 59q0 61 -61 61q-31 0 -46 -18t-15 -43zM362 1679q0 -31 17.5 -56.5t64.5 -25.5t64.5 26t17.5 56q0 47 -25.5 64.5t-56.5 17.5t-56.5 -17.5t-25.5 -64.5zM834 532l466 1270h353 l409 -1270h-327l-125 390h-551l-144 -390h-81zM1100 1024h475l-223 696zM1364 41l41 205h61l-61 -205h-41zM1421 1741l27 -80l47 80h-74zM1462 1624l17 -57l106 174h-51zM1466 41l41 205h62l-62 -205h-41zM1493 1528l23 -74l114 193l-22 69zM1536 1393l12 -41l115 190 l-12 41zM1565 1303l12 -41l115 190l-13 41zM1591 -203q0 76 18.5 146.5t51.5 124t78 86t98 32.5q109 0 167 -74.5t58 -211.5q0 -201 -71.5 -295t-194.5 -94q-39 0 -76 16t-65.5 50t-46 88t-17.5 132zM1595 1208l13 -41l114 189l-14 43zM1622 1126l14 -49l115 191l-14 49z M1651 1032l14 -41l113 191l-11 41zM1673 -162l287 123q-4 39 -16 70q-12 27 -36 49t-71 22q-53 0 -86 -42t-49 -91q-20 -57 -29 -131zM1673 -264q0 -23 7.5 -48.5t22.5 -47t38.5 -35t54.5 -13.5q61 0 94 41t49 93q18 57 21 133zM1679 940l13 -33l114 187l-10 39zM1706 860 l12 -33l115 189l-12 35zM1733 778l12 -39l117 187l-13 43zM1759 696l15 -47l114 193l-14 45zM1786 614l6 -20h27l96 162l-14 49zM1851 594h41l50 84l-15 41zM1925 594h41l-14 45z" />
<glyph unicode="&#xd;" horiz-adv-x="659" />
<glyph unicode=" "  horiz-adv-x="659" />
<glyph unicode="&#x09;" horiz-adv-x="659" />
<glyph unicode="&#xa0;" horiz-adv-x="659" />
<glyph unicode="!" horiz-adv-x="256" d="M76 0v104h104v-104h-104zM76 233v816h104v-816h-104z" />
<glyph unicode="&#x22;" horiz-adv-x="481" d="M76 737v314h106v-314h-106zM285 737v314h106v-314h-106z" />
<glyph unicode="#" horiz-adv-x="1099" d="M76 301l20 84h156l63 233h-155l20 82h156l78 289h100l-78 -289h305l78 289h101l-78 -289h176l-23 -82h-176l-61 -233h176l-25 -84h-174l-80 -301h-98l80 301h-307l-80 -301h-98l79 301h-155zM352 385h305l64 233h-307z" />
<glyph unicode="$" horiz-adv-x="788" d="M76 57v86q39 -23 86 -41q41 -16 93 -27.5t112 -11.5q113 0 177 55.5t64 160.5q0 74 -40 114.5t-98 67t-128 46t-128 50.5t-98 79t-40 134q0 53 23.5 95t62.5 72t89 47t103 22v155h99v-155q55 -4 96 -12.5t69 -18.5q33 -10 54 -25v-86q-31 16 -70 29q-35 10 -86 20.5 t-123 10.5q-37 0 -74.5 -11.5t-68.5 -31t-50.5 -48t-19.5 -63.5q0 -61 40 -95t98.5 -58.5t128 -46t128 -56.5t98.5 -90t40 -145q0 -53 -11.5 -102.5t-41 -88.5t-80 -66.5t-127.5 -35.5v-156h-99v152q-72 2 -124 14t-87 27q-39 16 -67 34z" />
<glyph unicode="%" horiz-adv-x="1155" d="M76 846q0 145 54 217t136 72q78 0 130.5 -68t52.5 -209q0 -70 -15.5 -122t-42 -87t-61.5 -52t-74 -17q-76 0 -128 65.5t-52 200.5zM176 850q0 -59 7 -96t18.5 -57.5t27 -27.5t33.5 -7t34.5 7t29 28.5t19.5 58.5t7 96q0 61 -8 101t-20.5 61.5t-28.5 30t-33 8.5 q-16 0 -31.5 -8.5t-28 -31t-19.5 -61.5t-7 -102zM221 0l678 1217h109l-678 -1217h-109zM707 240q0 145 55 216.5t135 71.5q78 0 130 -67.5t52 -208.5t-57 -210t-135 -69q-76 0 -128 65.5t-52 201.5zM807 244q0 -63 7 -101.5t19.5 -57.5t28 -25.5t31.5 -6.5q18 0 34.5 7.5 t29 28t19.5 58.5t7 99q0 63 -7 103t-19.5 61.5t-29 28.5t-34.5 7q-16 0 -31.5 -8t-28 -29.5t-19.5 -61.5t-7 -103z" />
<glyph unicode="&#x26;" horiz-adv-x="1116" d="M76 252q0 113 55 190.5t174 130.5q-45 29 -86 82.5t-41 130.5q0 111 78 167.5t190 56.5q45 0 90.5 -14.5t79 -40t55 -63.5t21.5 -85q0 -94 -54 -149.5t-159 -94.5q113 -57 181.5 -138t115.5 -153q33 47 59.5 101.5t44 108t26.5 103.5t9 89v26h105q-6 -121 -57.5 -254 t-133.5 -247q41 -51 87.5 -83t123.5 -32v-84q-104 0 -164.5 37t-107.5 90q-141 -145 -365 -145q-160 0 -243.5 64.5t-83.5 205.5zM180 252q0 -102 58.5 -145.5t162.5 -43.5q90 0 172 33t138 97q-31 43 -62 89t-68.5 89t-86 79.5t-111.5 59.5q-53 -23 -91 -44.5t-62.5 -50 t-37 -67.5t-12.5 -96zM283 786q0 -53 28.5 -102t89.5 -84q98 35 142.5 87t44.5 124q0 29 -15.5 49.5t-37 33.5t-46 19.5t-43.5 6.5q-80 0 -121.5 -39t-41.5 -95z" />
<glyph unicode="'" horiz-adv-x="256" d="M76 737v314h104v-314h-104z" />
<glyph unicode="(" horiz-adv-x="399" d="M45 375q0 395 242 684h88q-121 -147 -177.5 -317.5t-56.5 -366.5q0 -190 56.5 -354t177.5 -308h-90q-117 129 -178.5 297t-61.5 365z" />
<glyph unicode=")" horiz-adv-x="399" d="M14 -287q121 143 177.5 306t56.5 356t-56.5 364.5t-177.5 319.5h88q242 -289 242 -684q0 -389 -242 -662h-88z" />
<glyph unicode="*" horiz-adv-x="573" d="M76 780l166 86l-166 86l67 92l117 -110l-22 162h114l-24 -164l121 112l67 -92l-168 -86l168 -86l-67 -92l-121 113l24 -164h-114l22 162l-117 -111z" />
<glyph unicode="+" horiz-adv-x="747" d="M76 371v84h256v270h84v-270h256v-84h-256v-248h-84v248h-256z" />
<glyph unicode="," horiz-adv-x="256" d="M-33 -223q31 39 53 76q20 33 38 70.5t18 70.5v115h104v-115q0 -41 -21.5 -80t-47.5 -70q-31 -37 -68 -67h-76z" />
<glyph unicode="-" horiz-adv-x="532" d="M76 389v88h381v-88h-381z" />
<glyph unicode="." horiz-adv-x="256" d="M76 0v109h104v-109h-104z" />
<glyph unicode="/" horiz-adv-x="454" d="M14 0l326 1219h94l-323 -1219h-97z" />
<glyph unicode="0" horiz-adv-x="829" d="M45 473q0 133 27.5 233.5t77 167t117 100.5t147.5 34q76 0 143.5 -31t118.5 -93.5t79.5 -159.5t28.5 -228q0 -129 -32.5 -225.5t-86 -161t-124 -96t-146.5 -31.5t-139 29.5t-110.5 91t-74 153.5t-26.5 217zM150 479q0 -211 72.5 -313.5t183.5 -102.5q117 0 195.5 105.5 t78.5 316.5q0 217 -79 328t-195 111q-111 0 -183.5 -111t-72.5 -334z" />
<glyph unicode="1" horiz-adv-x="450" d="M45 741v86q45 18 85 45t71 54q37 31 65 63h109v-989h-105v850q-35 -23 -97 -58.5t-128 -50.5z" />
<glyph unicode="2" horiz-adv-x="675" d="M45 0v84q0 59 35 113.5t87 106.5t113.5 103.5t113.5 104.5t87 108.5t35 116.5q0 100 -50 143.5t-132 43.5q-66 0 -135.5 -18.5t-112.5 -65.5v86q43 45 106.5 63.5t141.5 18.5q123 0 205 -64.5t82 -193.5q0 -74 -35 -137.5t-86 -121t-111.5 -109.5t-114 -102.5t-89 -98.5 t-38.5 -97h515v-84h-617z" />
<glyph unicode="3" horiz-adv-x="696" d="M76 37v92q49 -41 104.5 -53.5t122.5 -12.5q106 0 175 49.5t69 143.5q0 104 -82 158.5t-287 54.5v76q92 4 164 26q61 18 112.5 59.5t51.5 112.5q0 98 -46 139.5t-122 41.5q-49 0 -111.5 -12.5t-109.5 -47.5v86q47 31 98 44.5t123 13.5q57 0 107.5 -18.5t87 -50.5t57 -74 t20.5 -89q0 -197 -192 -262q47 -8 90 -29.5t74.5 -53.5t50 -74t18.5 -91q0 -70 -26.5 -123t-73.5 -89t-110.5 -54t-137.5 -18q-72 0 -128 15t-99 40z" />
<glyph unicode="4" horiz-adv-x="718" d="M14 244v94l457 651h109v-659h125v-86h-125v-244h-105v244h-461zM121 330h354v514z" />
<glyph unicode="5" horiz-adv-x="655" d="M76 16v86q23 -12 51 -20q25 -8 59.5 -13.5t79.5 -5.5q121 0 180.5 58.5t59.5 161.5q0 111 -68.5 171t-175.5 60q-47 0 -83 -3t-58 -7q-27 -4 -45 -8v493h465v-86h-361v-315h78q88 0 154.5 -22.5t110.5 -62.5t65.5 -94.5t21.5 -117.5q0 -154 -95 -231.5t-249 -77.5 q-72 0 -114.5 10t-75.5 24z" />
<glyph unicode="6" horiz-adv-x="724" d="M45 436q0 281 107.5 426.5t300.5 145.5h89t79 -17v-84q-20 4 -46 8q-23 4 -52 6.5t-70 2.5q-143 2 -226.5 -110t-79.5 -314q16 35 45 57.5t61 34.5t63.5 17t56.5 5q63 0 119.5 -22.5t97.5 -63.5t65.5 -98t24.5 -127t-23.5 -128t-64.5 -101t-100.5 -67.5t-129.5 -24.5 q-147 0 -232 120.5t-85 333.5zM158 328q0 -117 50 -191t154 -74q45 0 84 19.5t68 52.5t46.5 77t17.5 91q0 109 -55.5 169t-160.5 60q-53 0 -92 -22.5t-63.5 -54t-36.5 -66t-12 -61.5z" />
<glyph unicode="7" horiz-adv-x="665" d="M14 903v86h637v-61l-356 -928h-102l337 903h-516z" />
<glyph unicode="8" horiz-adv-x="706" d="M45 258q0 88 46 162t136 115q-63 31 -102 91t-39 132q0 55 19.5 100t55.5 79t84 52.5t107 18.5q55 0 104.5 -19.5t86.5 -53.5t57.5 -80t20.5 -97q0 -72 -37 -132.5t-105 -90.5q92 -41 137.5 -117t45.5 -160q0 -70 -24 -121t-66 -86t-98 -52t-122 -17q-141 0 -224 68.5 t-83 207.5zM150 279q0 -92 49 -154t153 -62q100 0 152.5 61.5t52.5 154.5q0 39 -13.5 76.5t-39 67.5t-63.5 48t-89 18q-92 0 -147 -59t-55 -151zM190 745q0 -66 40 -116.5t122 -50.5q72 0 119 51t47 116q0 84 -50 131.5t-116 47.5q-78 0 -120 -47.5t-42 -131.5z" />
<glyph unicode="9" horiz-adv-x="724" d="M45 684q0 70 22.5 129t63.5 102t99.5 68t129.5 25q143 0 231.5 -119t88.5 -336q0 -285 -103.5 -428t-297.5 -143h-92.5t-82.5 16v84q20 -6 48 -10q23 -4 54.5 -6.5t72.5 -2.5q76 0 133 31t96 87.5t56.5 135t13.5 172.5q-18 -37 -46 -59t-60 -34.5t-63.5 -16.5t-56.5 -4 q-63 0 -118.5 21.5t-97.5 62.5t-66.5 97t-24.5 128zM147 684q0 -117 58.5 -172t154.5 -55q51 0 90 21.5t66 53t39 67.5t12 65q0 129 -56 194.5t-151 65.5q-41 0 -78.5 -17.5t-67.5 -50.5t-48.5 -77t-18.5 -95z" />
<glyph unicode=":" horiz-adv-x="256" d="M76 0v104h104v-104h-104zM76 596v104h104v-104h-104z" />
<glyph unicode=";" horiz-adv-x="256" d="M-33 -223q31 37 53 73q20 33 38 71t18 73v112h104v-112q0 -45 -21.5 -84t-47.5 -68q-31 -35 -68 -65h-76zM76 596v106h104v-106h-104z" />
<glyph unicode="&#x3c;" horiz-adv-x="720" d="M45 309v43l662 371v-94l-527 -299l527 -258v-92z" />
<glyph unicode="=" horiz-adv-x="747" d="M76 252v86h596v-86h-596zM76 467v84h596v-84h-596z" />
<glyph unicode="&#x3e;" horiz-adv-x="720" d="M14 -20v92l527 258l-527 299v94l662 -371v-43z" />
<glyph unicode="?" horiz-adv-x="624" d="M76 846v88q18 20 49 37q27 14 67.5 25.5t100.5 11.5q47 0 93 -13.5t82 -40t58.5 -67.5t22.5 -96q0 -80 -39 -129.5t-85 -84t-84 -64.5t-38 -75v-205h-104v201q0 39 18.5 68.5t45 54.5t59 47.5t59.5 47t45 55t18 71.5q0 78 -44 113t-101 35q-55 0 -96 -12.5t-70 -28.5 q-33 -18 -57 -39zM199 0v104h104v-104h-104z" />
<glyph unicode="@" horiz-adv-x="1320" d="M102 375q0 117 46.5 218t127 178t188 123t230.5 48q111 2 210.5 -34t174 -100.5t118.5 -153.5t44 -193q0 -74 -22.5 -138.5t-60.5 -112.5t-88 -77t-107 -29q-74 -2 -113 36t-43 124q-49 -94 -96 -128t-121 -34q-41 0 -83 15.5t-75 48.5t-53.5 83t-20.5 120q0 63 27 120.5 t70 100.5t99 67.5t116 24.5q72 0 110.5 -27.5t53.5 -54.5l16 80h94l-57 -318q-4 -49 4 -86q6 -33 20.5 -59.5t49.5 -26.5q45 0 78.5 27t56 67t34 87t11.5 88q0 63 -29 135t-85 131t-140 97t-195 36q-115 -2 -206 -47t-155.5 -114.5t-99 -154.5t-34.5 -167t30.5 -163 t90 -145.5t147.5 -104.5t205 -40q78 0 152.5 16.5t135.5 41.5v-82q-59 -20 -130.5 -37t-153.5 -17q-123 0 -227.5 40t-181.5 111t-120 168t-43 212zM457 371q0 -96 44 -140.5t93 -44.5q80 0 134 68t71 242q-2 37 -32.5 69.5t-96.5 32.5q-37 0 -75 -15.5t-68.5 -44t-50 -70.5 t-19.5 -97z" />
<glyph unicode="A" horiz-adv-x="870" d="M14 0l363 989h108l363 -989h-103l-98 266h-436l-100 -266h-97zM240 352h378l-186 533z" />
<glyph unicode="B" horiz-adv-x="768" d="M76 0v989h278q131 0 204 -64.5t73 -164.5q0 -37 -10.5 -73t-32 -68.5t-52 -57t-71.5 -39.5q100 -16 163.5 -82.5t63.5 -160.5q0 -59 -24.5 -110.5t-68.5 -88.5t-105.5 -58.5t-135.5 -21.5h-282zM180 84h166q106 0 174 55.5t68 139.5q0 98 -72 151t-194 53h-142v-399z M180 567h131q98 0 156.5 43t58.5 129q0 72 -46 118t-158 46h-142v-336z" />
<glyph unicode="C" horiz-adv-x="819" d="M45 483q0 123 36 220.5t101.5 165t156.5 103.5t204 36q66 0 137.5 -6.5t120.5 -28.5l-33 -86q-59 29 -109.5 33t-115.5 4q-84 0 -156 -29t-125 -84t-82.5 -137t-29.5 -191q0 -199 106 -309.5t287 -110.5q39 0 67.5 3.5t54 10.5t50 17t53.5 27l35 -86q-59 -35 -128 -44 t-147 -9q-109 0 -197.5 34.5t-152 99t-98.5 158t-35 209.5z" />
<glyph unicode="D" horiz-adv-x="921" d="M76 0v989h272q264 0 396.5 -122t132.5 -363q0 -113 -38 -205t-109 -158.5t-171 -103.5t-223 -37h-260zM180 84h156q98 0 178 27.5t137.5 82t89 132t31.5 178.5q0 205 -113.5 302t-318.5 97h-160v-819z" />
<glyph unicode="E" horiz-adv-x="665" d="M76 0v989h514v-86h-410v-366h369v-84h-369v-369h410v-84h-514z" />
<glyph unicode="F" horiz-adv-x="604" d="M76 0v989h514v-86h-410v-366h369v-84h-369v-453h-104z" />
<glyph unicode="G" horiz-adv-x="942" d="M45 473q0 119 40 218.5t110.5 169t167 108.5t208.5 39q74 0 125.5 -9.5t85.5 -19.5q37 -12 64 -27v-80q4 -4 -8.5 3.5t-46 18.5t-90 20.5t-138.5 9.5q-88 0 -163.5 -32t-131 -90.5t-87 -141t-31.5 -187.5q0 -104 29.5 -181t82.5 -128t127 -76t162 -25q66 0 116 11.5 t95 38.5v299h-225v84h329v-447q-78 -43 -155.5 -55t-175.5 -12q-109 0 -199 33.5t-154.5 97t-100.5 154.5t-36 206z" />
<glyph unicode="H" horiz-adv-x="890" d="M76 0v989h104v-432h531v432h104v-989h-104v473h-531v-473h-104z" />
<glyph unicode="I" horiz-adv-x="256" d="M76 0v989h104v-989h-104z" />
<glyph unicode="J" horiz-adv-x="501" d="M14 0l35 78q12 -4 27 -8q25 -6 69 -7q174 0 174 281v645h105v-645q0 -170 -71.5 -266t-202.5 -96q-39 0 -65 2t-42 6q-18 4 -29 10z" />
<glyph unicode="K" horiz-adv-x="778" d="M76 0v989h104v-528l422 528h119l-266 -332l303 -657h-107l-264 571l-207 -264v-307h-104z" />
<glyph unicode="L" horiz-adv-x="604" d="M76 0v989h104v-905h410v-84h-514z" />
<glyph unicode="M" horiz-adv-x="1177" d="M76 0v989h147l355 -829l374 829h150v-989h-105v858l-395 -858h-49l-373 856v-856h-104z" />
<glyph unicode="N" horiz-adv-x="952" d="M76 0v989h139l557 -862v862h105v-989h-140l-557 852v-852h-104z" />
<glyph unicode="O" horiz-adv-x="1034" d="M45 479q0 250 127 389.5t354 139.5q102 0 187.5 -36t147 -101.5t95 -159t33.5 -209.5q0 -125 -33.5 -222.5t-97 -163t-152.5 -100t-200 -34.5q-104 0 -189.5 33.5t-145.5 98t-93 156.5t-33 209zM150 479q0 -92 23.5 -169t69.5 -132t112.5 -85t150.5 -30q180 0 279.5 117 t99.5 322q0 92 -25.5 170t-72 134t-113 87t-148.5 31q-90 0 -160.5 -32t-118.5 -90.5t-72.5 -140t-24.5 -182.5z" />
<glyph unicode="P" horiz-adv-x="716" d="M76 0v989h270q160 0 243 -79t83 -222q0 -68 -23.5 -126t-68.5 -101t-111 -66.5t-152 -23.5h-137v-371h-104zM180 455h137q121 0 185.5 63.5t64.5 167.5q0 109 -49 163t-172 54h-166v-448z" />
<glyph unicode="Q" horiz-adv-x="1034" d="M45 479q0 250 127 389.5t358 139.5q100 0 185.5 -36t146 -101.5t94 -159t33.5 -209.5q0 -168 -60.5 -285t-170.5 -178q51 -20 97 -61t46 -119h-96q0 29 -17.5 51t-43 39.5t-53 30t-46.5 18.5q-33 -8 -65.5 -12t-69.5 -4q-215 0 -340 131t-125 366zM150 479 q0 -92 24.5 -169t69.5 -132t110.5 -85t149.5 -30q180 0 280.5 117t100.5 322q0 92 -25.5 170t-72 134t-112 87t-145.5 31q-92 0 -163.5 -32t-119.5 -90.5t-72.5 -140t-24.5 -182.5z" />
<glyph unicode="R" horiz-adv-x="798" d="M76 0v989h299q61 0 115.5 -17.5t94.5 -51t63.5 -84t23.5 -115.5q0 -109 -67.5 -168t-168.5 -82q47 -16 80 -64.5t64 -97.5l196 -309h-117l-180 285q-20 31 -38.5 58.5t-40 47t-49 30.5t-64.5 11h-107v-432h-104zM180 516h164q92 0 157.5 51t65.5 154q0 84 -59 135 q-57 49 -151 49h-7l-170 -2v-387z" />
<glyph unicode="S" horiz-adv-x="788" d="M76 57v86q41 -23 90 -41q41 -16 95 -27.5t114 -11.5q117 0 175 59.5t58 156.5q0 72 -40 113.5t-98 68t-128 46t-128 50.5t-98 80t-40 133q0 59 28.5 104.5t73.5 75t102.5 45t112.5 15.5q70 0 122 -10.5t87 -20.5q41 -12 70 -29v-84q-31 16 -70 29q-35 10 -86 19.5 t-123 9.5q-35 0 -72.5 -11.5t-68.5 -31t-51.5 -48t-20.5 -63.5q0 -61 40 -95t98.5 -58.5t128 -46t128 -56.5t98.5 -90t40 -145q0 -57 -14.5 -110.5t-52.5 -95.5t-106.5 -66.5t-174.5 -24.5q-72 0 -125.5 11t-89.5 25q-43 16 -74 39z" />
<glyph unicode="T" horiz-adv-x="696" d="M14 903v86h668v-86h-276v-903h-105v903h-287z" />
<glyph unicode="U" horiz-adv-x="890" d="M76 373v616h104v-608q0 -154 56.5 -236t197.5 -82t209 77t68 229v620h104v-602q0 -207 -93 -306t-286 -99q-184 0 -272 95t-88 296z" />
<glyph unicode="V" horiz-adv-x="870" d="M14 989h103l315 -874l313 874h103l-363 -989h-108z" />
<glyph unicode="W" horiz-adv-x="1300" d="M14 989h103l243 -880l263 880h67l223 -883l263 883h104l-301 -989h-129l-193 815l-233 -815h-129z" />
<glyph unicode="X" horiz-adv-x="808" d="M14 0l322 494l-301 495h121l239 -409l262 409h121l-321 -495l321 -494h-121l-260 408l-262 -408h-121z" />
<glyph unicode="Y" horiz-adv-x="768" d="M14 989h103l252 -528l272 528h100l-321 -629v-360h-105v352z" />
<glyph unicode="Z" horiz-adv-x="768" d="M14 0v18l582 885h-541v86h699v-20l-582 -885h559q0 -23 1 -42t1 -42h-719z" />
<glyph unicode="[" horiz-adv-x="382" d="M76 -287v1346h293v-82h-201v-1182h201v-82h-293z" />
<glyph unicode="\" horiz-adv-x="454" d="M14 1219h97l323 -1219h-94z" />
<glyph unicode="]" horiz-adv-x="382" d="M14 -205h201v1182h-201v82h293v-1346h-293v82z" />
<glyph unicode="^" horiz-adv-x="907" d="M76 395l330 666h43l370 -666h-94l-299 529l-256 -529h-94z" />
<glyph unicode="_" horiz-adv-x="747" d="M76 -12h596v-88h-596v88z" />
<glyph unicode="`" horiz-adv-x="415" d="M76 1112h98l145 -211h-77z" />
<glyph unicode="a" horiz-adv-x="706" d="M74 186q2 68 30.5 109t68.5 64.5t85 31.5t84 8q53 0 91 5.5t61 11.5q27 8 43 16q0 117 -53.5 170t-147.5 53q-63 0 -106.5 -20.5t-69.5 -42.5q-31 -29 -49 -64l-35 80q20 35 55 62q29 23 78 42t125 19q51 0 103 -13t95 -44t70 -83t27 -128v-463h-94v82 q-29 -33 -83.5 -67.5t-132.5 -34.5q-109 0 -179 50q-66 47 -66 145v11zM168 186q0 -76 49 -104.5t115 -28.5q33 0 64.5 10.5t58 26.5t47 35.5t33.5 36.5v190l-58 -16q-27 -6 -57.5 -11.5t-61.5 -5.5q-35 0 -68.5 -8t-61 -24.5t-44 -41t-16.5 -59.5z" />
<glyph unicode="b" horiz-adv-x="808" d="M76 0v1049h94v-422q27 29 63 51q33 20 80 36.5t109 16.5q53 0 113.5 -21.5t110.5 -65.5t84 -111.5t34 -159.5q0 -102 -29.5 -174t-79 -118t-110 -67.5t-121.5 -21.5t-108.5 15.5t-79.5 35.5q-37 23 -66 51v-94h-94zM170 172q33 -33 72 -55q35 -20 82 -37t104 -17 q37 0 80 16.5t79 53.5t59.5 96.5t23.5 143.5q0 68 -23.5 121t-59.5 88.5t-78 55t-81 19.5q-59 0 -105.5 -17t-80.5 -38q-39 -23 -72 -53v-377z" />
<glyph unicode="c" horiz-adv-x="604" d="M45 340q0 88 26.5 160.5t75 124t116 79t149.5 27.5q37 0 69.5 -7t55.5 -15q27 -10 51 -23l-33 -74q-16 12 -39 23q-18 8 -45 15t-59 7q-53 0 -101.5 -20.5t-87.5 -60t-61.5 -99t-22.5 -137.5q0 -74 22.5 -126t61.5 -86t87 -49.5t102 -15.5q33 0 59.5 6.5t44.5 16.5 q23 10 39 25l33 -76q-23 -14 -51 -23q-25 -8 -60 -14t-78 -6q-160 0 -257 91t-97 257z" />
<glyph unicode="d" horiz-adv-x="808" d="M45 373q0 94 34 162.5t85 111.5t112.5 63.5t114.5 20.5q61 0 107.5 -16.5t76.5 -36.5q37 -23 64 -51v422h94v-1049h-94v94q-27 -29 -64 -51q-33 -20 -78.5 -35.5t-107.5 -15.5q-61 0 -122.5 20.5t-111 65.5t-80 117.5t-30.5 177.5zM139 373q0 -88 23.5 -147.5t60.5 -95.5 t80 -51.5t82 -15.5q53 0 99 16.5t81 37.5q39 23 74 55v377q-35 31 -74 53q-35 20 -81 37.5t-99 17.5q-39 0 -82 -18t-80 -54t-60.5 -89.5t-23.5 -122.5z" />
<glyph unicode="e" horiz-adv-x="704" d="M45 348q0 84 24.5 154.5t66.5 121t100.5 79t125.5 28.5q135 0 216 -88t81 -260v-43h-522q0 -74 19.5 -126t53.5 -86t79 -49.5t94 -15.5q55 0 91 10.5t58 24.5q25 16 41 37l35 -80q-27 -18 -59 -32q-29 -12 -69 -21.5t-93 -9.5q-76 0 -138.5 19.5t-107.5 62.5t-70.5 110.5 t-25.5 163.5zM135 414h428q-4 117 -57 180t-144 63q-86 0 -148 -66.5t-79 -176.5z" />
<glyph unicode="f" horiz-adv-x="460" d="M14 627v73h133v119q0 121 46.5 185.5t142.5 64.5q35 0 57.5 -1t34.5 -3q14 -2 18 -2v-72q-6 0 -14 2q-8 0 -21.5 1t-35.5 1q-76 0 -104.5 -44t-28.5 -132v-119h204v-73h-204v-627h-95v627h-133z" />
<glyph unicode="g" horiz-adv-x="808" d="M45 348q0 104 30.5 177t79 119t110 66.5t122.5 20.5t107.5 -16.5t78.5 -36.5q37 -23 66 -51v94h94v-707q0 -197 -90 -283.5t-287 -86.5q-61 0 -106 10t-74 22q-35 14 -57 33l35 76q20 -20 49 -35q25 -12 62.5 -22.5t90.5 -10.5q147 0 215 68t68 211v98q-29 -29 -66 -51 q-33 -20 -80 -35.5t-108 -15.5q-51 0 -110.5 19.5t-110.5 62.5t-85 110.5t-34 163.5zM139 348q0 -70 24.5 -123t61.5 -89t80 -54.5t82 -18.5q53 0 99 16.5t81 37.5q39 23 72 55v379q-33 31 -72 53q-35 20 -81 37.5t-99 17.5q-39 0 -82 -15t-80 -52t-61.5 -96.5t-24.5 -147.5 z" />
<glyph unicode="h" horiz-adv-x="747" d="M76 0v1049h94v-443q18 35 51 62q29 23 72 43t106 20q74 0 126.5 -19.5t85 -55t47 -84t14.5 -103.5v-469h-94v475q0 80 -56.5 126t-134.5 46q-57 0 -98 -19.5t-68 -41.5q-31 -27 -51 -62v-524h-94z" />
<glyph unicode="i" horiz-adv-x="245" d="M76 0v721h94v-721h-94zM76 838v92h94v-92h-94z" />
<glyph unicode="j" horiz-adv-x="245" d="M-207 -334l35 78q10 -8 22 -14q10 -4 23.5 -8.5t28.5 -4.5q86 0 130 69t44 196v739h94v-717q0 -176 -71.5 -268t-194.5 -92q-59 0 -86 10q-16 6 -25 12zM76 838v92h94v-92h-94z" />
<glyph unicode="k" horiz-adv-x="655" d="M76 0v1049h94v-754l322 403h104l-180 -225l219 -473h-88l-187 403l-190 -241v-162h-94z" />
<glyph unicode="l" horiz-adv-x="245" d="M76 0v1049h94v-1049h-94z" />
<glyph unicode="m" horiz-adv-x="1249" d="M76 0v721h94v-115q0 2 13.5 21.5t41 43t69.5 42t101 18.5q104 0 163.5 -34.5t88.5 -98.5q8 12 28.5 33.5t53.5 44t76 39t96 16.5q74 0 126 -19.5t85 -54t47.5 -83t14.5 -105.5v-469h-95v475q0 84 -58 128t-136 44q-57 0 -96 -19.5t-66 -41.5q-31 -27 -51 -62v-524h-94 v475q0 80 -56.5 126t-134.5 46q-59 0 -99 -19.5t-67 -41.5q-31 -27 -51 -62v-524h-94z" />
<glyph unicode="n" horiz-adv-x="747" d="M76 0v721h94v-115q18 35 51 62q29 23 71 43t103 20q76 0 129.5 -19.5t86 -54t47 -83t14.5 -105.5v-469h-94v475q0 84 -57.5 128t-137.5 44q-57 0 -96 -19.5t-66 -41.5q-31 -27 -51 -62v-524h-94z" />
<glyph unicode="o" horiz-adv-x="786" d="M45 350q0 186 95.5 283.5t260.5 97.5q154 0 247 -95t93 -269q0 -186 -94 -280.5t-260 -94.5q-154 0 -248 92t-94 266zM139 350q0 -141 69.5 -214t178.5 -73q117 0 188.5 76t71.5 228q0 139 -68.5 214.5t-177.5 75.5q-117 0 -189.5 -76.5t-72.5 -230.5z" />
<glyph unicode="p" horiz-adv-x="808" d="M76 -326v1047h94v-94q27 29 63 51q33 20 80 36.5t113 16.5q57 0 117.5 -20.5t109.5 -66.5t80 -118.5t31 -177.5q0 -96 -34 -163.5t-85 -110.5t-111.5 -62.5t-113.5 -19.5q-61 0 -108.5 15.5t-78.5 35.5q-37 23 -63 51v-420h-94zM170 172q33 -31 72 -53q35 -20 81 -36.5 t101 -16.5q43 0 86 19t79 56t58.5 89.5t22.5 117.5q0 82 -22.5 140.5t-57.5 96.5t-78 55t-84 17q-59 0 -105.5 -16t-80.5 -37q-39 -23 -72 -53v-379z" />
<glyph unicode="q" horiz-adv-x="808" d="M45 348q0 104 32 177t81 119t111.5 66.5t123.5 20.5t107.5 -16.5t77.5 -36.5q37 -23 61 -51v94h94v-1047h-94v420q-29 -29 -66 -51q-33 -20 -78.5 -35.5t-107.5 -15.5q-53 0 -112.5 19.5t-110.5 62.5t-85 110.5t-34 163.5zM139 348q0 -66 22.5 -118t58.5 -89t79 -56 t86 -19q55 0 101 16t81 37q39 23 72 53v379q-33 31 -72 53q-35 20 -81 36.5t-103 16.5q-43 0 -86 -17t-79 -55t-57.5 -96.5t-21.5 -140.5z" />
<glyph unicode="r" horiz-adv-x="444" d="M76 0v721h94v-189q18 55 47 99q25 37 61.5 68.5t88.5 31.5q12 0 22 -1t21 -3q10 -2 20 -2v-88q-8 2 -18 4t-21.5 3t-23.5 1q-37 0 -72 -32.5t-64 -71.5q-33 -47 -61 -105v-436h-94z" />
<glyph unicode="s" horiz-adv-x="624" d="M76 27v73q23 -14 53 -24q27 -10 62.5 -16.5t82.5 -6.5q84 0 132.5 35t48.5 109q0 55 -28 84.5t-71 48t-91 31t-91 33t-70.5 54t-27.5 97.5q0 39 20.5 75.5t54 63.5t75.5 43t85 16q51 0 88 -7t62 -17q29 -10 47 -23v-75q-18 12 -47 22q-25 10 -62 17.5t-88 7.5 q-53 0 -97 -35t-44 -88q0 -45 27.5 -68.5t70.5 -37t91.5 -26t91.5 -36t70.5 -65.5t27.5 -115q0 -39 -14.5 -78t-47 -70t-86 -49t-131.5 -18q-47 0 -82.5 6t-60.5 16q-29 8 -51 23z" />
<glyph unicode="t" horiz-adv-x="460" d="M14 627v73h133v349h95v-349h204v-73h-204v-387q0 -88 29.5 -132.5t105.5 -44.5q45 0 55 3q8 0 14 2v-70q-6 -2 -20 -4q-12 -2 -34.5 -2h-57.5q-98 0 -142.5 64.5t-44.5 185.5v385h-133z" />
<glyph unicode="u" horiz-adv-x="747" d="M76 252v469h94v-479q0 -74 54.5 -122t140.5 -48q59 0 98 19.5t65 41.5q29 27 50 62v526h94v-721h-94v115q-23 -37 -56 -64q-29 -23 -72.5 -42t-103.5 -19q-74 0 -126 19.5t-84 54t-46 83t-14 105.5z" />
<glyph unicode="v" horiz-adv-x="686" d="M18 721h109l221 -617l215 617h96l-249 -721h-123z" />
<glyph unicode="w" horiz-adv-x="1044" d="M14 721h111l160 -617l204 617h70l184 -617l179 617h102l-219 -721h-109l-172 588l-190 -588h-119z" />
<glyph unicode="x" horiz-adv-x="624" d="M14 0l240 360l-240 361h101l188 -285l191 285h100l-240 -371l240 -350h-100l-191 274l-188 -274h-101z" />
<glyph unicode="y" horiz-adv-x="735" d="M12 -332l35 78q10 -8 23 -14q25 -14 55 -15q45 0 78 17.5t57 75.5l78 184l-313 727h102l262 -600l221 600h103l-340 -871q-23 -55 -43.5 -95t-48 -64.5t-65.5 -35.5t-95 -11q-29 0 -48.5 4t-33.5 8q-16 6 -27 12z" />
<glyph unicode="z" horiz-adv-x="661" d="M76 0v20l428 627h-389v74h532v-27l-424 -620h418v-74h-565z" />
<glyph unicode="{" horiz-adv-x="409" d="M45 315v72q127 12 127 180v240q0 131 58.5 189.5t164.5 62.5v-82q-66 -4 -96.5 -50t-30.5 -124v-246q0 -82 -26.5 -136t-98.5 -75q68 -16 96.5 -70.5t28.5 -140.5v-235q0 -88 22.5 -131t104.5 -43v-82q-111 0 -167 57t-56 184v244q0 170 -127 186z" />
<glyph unicode="|" horiz-adv-x="247" d="M76 -256v1417h96v-1417h-96z" />
<glyph unicode="}" horiz-adv-x="409" d="M14 -274q82 0 104.5 43t22.5 131v235q0 86 29 140.5t96 70.5q-72 20 -98.5 74.5t-26.5 136.5v246q0 78 -30.5 124t-96.5 50v82q106 -4 165 -62.5t59 -189.5v-240q0 -168 127 -180v-72q-127 -16 -127 -186v-244q0 -127 -56.5 -184t-167.5 -57v82z" />
<glyph unicode="~" horiz-adv-x="745" d="M76 338q0 84 45 131t119 47q37 0 68.5 -17.5t64.5 -38t67.5 -37.5t75.5 -17q33 0 57.5 28.5t28.5 81.5h68q-4 -98 -50.5 -138t-117.5 -40q-37 0 -70 17.5t-65.5 37t-64.5 36.5t-64 17q-96 0 -97 -108h-65z" />
<glyph unicode="&#xa9;" horiz-adv-x="1327" d="M76 496q0 125 47 233.5t128 189t189.5 127t233.5 46.5t233.5 -46.5t189.5 -127t127 -189t46 -233.5t-46 -233.5t-127 -188.5t-189.5 -126t-233.5 -46t-233.5 46t-189.5 126t-128 188.5t-47 233.5zM129 496q0 -113 43 -211.5t116.5 -171t173 -114.5t212.5 -42t211 42 t171.5 114.5t115.5 171t42 211.5t-42 212t-115.5 172.5t-172 115.5t-210.5 42q-113 0 -212.5 -42t-173 -115.5t-116.5 -172.5t-43 -212zM350 485q0 176 100.5 276.5t266.5 100.5q47 0 96 -6t86 -20l-22 -50q-37 16 -78 21.5t-82 5.5q-135 0 -217 -89t-82 -239 q0 -154 82 -236.5t217 -82.5q53 0 86 9t74 32l22 -55q-41 -23 -89 -30t-103 -7q-162 0 -259.5 98t-97.5 272z" />
<glyph unicode="&#xad;" horiz-adv-x="532" d="M76 389v88h381v-88h-381z" />
<glyph unicode="&#xae;" horiz-adv-x="1345" d="M76 496q0 125 47 233.5t128 189t189.5 127t233.5 46.5t233.5 -46.5t189.5 -127t127 -189t46 -233.5t-46 -233.5t-127 -188.5t-189.5 -126t-233.5 -46t-233.5 46t-189.5 126t-128 188.5t-47 233.5zM129 496q0 -113 43 -211.5t116.5 -171t173 -114.5t212.5 -42t211 42 t171.5 114.5t115.5 171t42 211.5t-42 212t-115.5 172.5t-172 115.5t-210.5 42q-113 0 -212.5 -42t-173 -115.5t-116.5 -172.5t-43 -212zM469 145v727h219q90 0 151.5 -49t61.5 -143q0 -49 -14.5 -84t-39 -58.5t-57 -37t-67.5 -19.5q37 -20 66.5 -54t46.5 -60l143 -222h-80 l-121 201q-35 55 -81 88t-74 33h-88v-322h-66zM535 518h112q37 0 71 10.5t59.5 31t42 50t16.5 70.5q0 61 -44 100t-122 39h-135v-301z" />
<glyph unicode="&#xbc;" horiz-adv-x="1396" d="M90 1063v49q25 10 46.5 24.5t37.5 28.5q20 16 37 35h59v-545h-57v469q-18 -12 -53 -32.5t-70 -28.5zM324 0l733 1219h96l-735 -1219h-94zM979 176v51l250 359h59v-363h70v-47h-70v-135h-57v135h-252zM1036 223h195v283z" />
<glyph unicode="&#xbd;" horiz-adv-x="1423" d="M90 1063v49q25 10 46.5 24.5t37.5 28.5q20 16 37 35h59v-545h-57v469q-18 -12 -53 -32.5t-70 -28.5zM324 0l733 1219h96l-735 -1219h-94zM1024 41v47q0 49 41 93t91 87t91 88.5t41 98.5q0 55 -27.5 79.5t-74.5 24.5q-35 0 -75 -10t-64 -37v47q25 25 60.5 36t78.5 11 q70 0 115 -37t45 -108q0 -61 -40 -111.5t-89.5 -94.5t-91.5 -85t-44 -82h287v-47h-344z" />
<glyph unicode="&#xbe;" horiz-adv-x="1394" d="M76 686v51q29 -23 58.5 -30t66.5 -7q59 0 96 27t37 80q0 57 -44 87t-157 30v41q49 2 88 14q35 10 62.5 31.5t27.5 62.5q0 53 -25.5 77t-66.5 24q-27 0 -60.5 -7.5t-60.5 -25.5v47q27 16 54.5 23.5t66.5 7.5q66 0 108 -37t42 -90q0 -109 -105 -144q53 -10 90 -47t37 -90 q0 -78 -55 -117t-135 -39q-41 0 -71 8.5t-54 22.5zM324 0l733 1219h96l-735 -1219h-94zM977 176v51l250 359h59v-363h70v-47h-70v-135h-57v135h-252zM1034 223h195v283z" />
<glyph unicode="&#xe01;" horiz-adv-x="860" d="M45 668q31 59 80 108q41 41 106.5 75t161.5 34q66 0 134.5 -14.5t126 -48.5t93 -87t35.5 -129v-491q0 -29 -11 -48.5t-26 -35.5q-16 -18 -36 -31h-31v565q0 74 -26.5 119t-68.5 71.5t-93.5 36t-98.5 9.5q-59 0 -106 -21.5t-78 -46.5q-37 -29 -64 -65l123 -103 q-10 -12 -18 -35q-6 -18 -11.5 -47.5t-5.5 -76.5v-406h-106v401q0 39 6 69t14 52q8 25 23 43q-35 29 -62 51q-23 18 -42 34t-19 18z" />
<glyph unicode="&#xe02;" horiz-adv-x="716" d="M45 780v84h121q80 0 134 -42t54 -134q0 -51 -26.5 -91t-57.5 -71q-16 -16 -37.5 -56t-21.5 -110v-81q0 -39 6 -77t23.5 -69t49.5 -50.5t85 -19.5q49 0 80.5 20.5t50 53.5t25 70t6.5 72v585h104v-585q0 -61 -12.5 -115.5t-43 -94.5t-80.5 -63.5t-124 -23.5 q-80 0 -133 23.5t-85 63.5t-45.5 94t-13.5 116v81q0 57 10.5 96.5t27 66t35 46t34.5 37.5q12 16 25.5 41t13.5 41q0 35 -17.5 63.5t-66.5 28.5h-121z" />
<glyph unicode="&#xe03;" horiz-adv-x="716" d="M45 782v82q14 0 28.5 -8t28.5 -18q14 -12 31 -27q14 14 31 27q14 10 32.5 18t41.5 8q66 0 101.5 -42t35.5 -113q0 -61 -28 -97.5t-58 -66.5q-8 -8 -21.5 -22.5t-26 -36t-21.5 -48t-9 -57.5v-102q0 -39 6 -77t22.5 -69t48 -50.5t85.5 -19.5q49 0 80.5 21.5t50 55.5t26 72 t7.5 73v579h104v-571q0 -68 -12.5 -124t-43 -98t-82.5 -65.5t-130 -23.5t-129 23.5t-82 63.5t-43.5 94t-12.5 116v102q0 61 29 120.5t76 104.5q8 8 18.5 15.5t19.5 18.5t15 27.5t6 43.5q0 33 -20.5 49t-42.5 20q-12 2 -26.5 -8t-28.5 -20q-16 -14 -31 -31q-14 16 -27 31 q-10 10 -24.5 20t-24.5 10z" />
<glyph unicode="&#xe04;" horiz-adv-x="870" d="M76 0v606q0 70 30.5 122t82 87t116 52.5t129.5 17.5q68 0 132.5 -17.5t115.5 -53.5t82 -88t31 -120v-606h-105v606q0 51 -22.5 88t-59.5 60.5t-83 35t-91 11.5q-47 0 -92 -11.5t-81 -36t-58.5 -61.5t-22.5 -86v-258q27 35 64 64q29 23 70.5 43t91.5 20v-104 q-47 0 -88.5 -17.5t-71.5 -38.5q-37 -23 -66 -53v-262h-104z" />
<glyph unicode="&#xe05;" horiz-adv-x="870" d="M76 0v606q0 53 17.5 104.5t49 90.5t76.5 62.5t100 23.5q23 0 43.5 -15.5t36.5 -33.5q18 -23 35 -47q16 25 37 47q16 18 35.5 33.5t42.5 15.5q55 0 100 -23.5t77 -62.5t50.5 -90.5t18.5 -104.5v-606h-105v606q0 31 -8 65t-24.5 63.5t-42 48t-58.5 18.5q-16 0 -37.5 -18.5 t-40.5 -41.5q-23 -27 -45 -59q-23 33 -45 59q-18 23 -38.5 41.5t-37.5 18.5q-35 0 -59.5 -18.5t-40.5 -48t-24.5 -63.5t-8.5 -65v-258q27 35 64 64q31 23 71.5 43t90.5 20v-104q-47 0 -88.5 -17.5t-71.5 -38.5q-37 -23 -66 -53v-262h-104z" />
<glyph unicode="&#xe06;" horiz-adv-x="880" d="M45 782v82q12 0 27.5 -8t29.5 -18q16 -12 31 -27q14 14 31 27q14 10 32.5 18t41.5 8q59 2 98 -38t39 -117q0 -70 -25.5 -109t-56.5 -69.5t-56.5 -62.5t-25.5 -85v-184q33 -33 72 -58q35 -23 80 -40t100 -17q135 0 186 66.5t51 189.5v524h105v-590q0 -49 -18.5 -100 t-54.5 -94t-88 -70.5t-122 -27.5q-78 0 -136 20.5t-97 44.5q-47 29 -78 68v-115h-105v393q0 74 26 111t56.5 63.5t56 56t25.5 87.5q0 35 -22.5 51t-44.5 16q-12 0 -26.5 -9t-26.5 -19q-14 -12 -29 -29q-10 16 -23 31q-10 10 -23.5 20t-29.5 10z" />
<glyph unicode="&#xe07;" horiz-adv-x="727" d="M45 578h105l122 -494q61 0 116.5 25.5t96.5 71.5t65.5 109.5t24.5 141.5q0 76 -24.5 140.5t-67.5 110.5t-98 71.5t-117 25.5v86q92 0 168 -32.5t129 -90t83 -137.5t30 -174q0 -100 -35 -180t-92 -136.5t-130 -86t-149 -29.5h-88z" />
<glyph unicode="&#xe08;" horiz-adv-x="829" d="M47 711q20 49 62 86q35 33 95 60.5t156 27.5q100 0 178 -35t132.5 -93.5t83 -137t28.5 -166.5q0 -96 -25.5 -179.5t-73.5 -143.5t-116.5 -95t-154.5 -35h-103l-82 328q-6 16 -15 19t-26 3h-41v84h82q25 0 38.5 -4t21.5 -10t12 -13.5t8 -13.5l88 -309q76 0 130.5 33t88 86 t49 118.5t15.5 131.5q0 88 -27.5 153.5t-71.5 108.5t-101.5 64.5t-119.5 21.5q-74 0 -127 -26.5t-88 -59.5q-39 -37 -65 -86z" />
<glyph unicode="&#xe09;" horiz-adv-x="860" d="M45 391v84h70q59 0 86.5 -40t27.5 -99v-57q0 -47 5.5 -84t22.5 -63t53 -40t98 -14q53 0 102 19.5t88 41.5q43 27 82 64v321q0 135 -65.5 206t-190.5 71q-61 0 -113.5 -17.5t-89.5 -40.5q-45 -25 -80 -57l-32 84q35 33 84 57q41 23 99 40.5t132 17.5q188 0 274 -95.5 t86 -244.5v-545h-104v115q-37 -39 -86 -68q-41 -25 -98.5 -45t-126.5 -20q-123 0 -183.5 82.5t-60.5 224.5v35q0 16 -2 41.5t-21 25.5h-57z" />
<glyph unicode="&#xe0a;" horiz-adv-x="768" d="M45 780v84h127q74 0 128 -42t54 -134q0 -51 -27.5 -92t-58.5 -72q-16 -16 -38.5 -57t-22.5 -107v-104q0 -35 6 -68.5t25.5 -61.5t58.5 -45.5t104 -17.5q51 0 90 26t64 63.5t37 79.5t12 75q0 53 -12 103.5t-39 89.5t-65.5 62.5t-92.5 23.5v84q51 0 93 30.5t72 83t46.5 121 t16.5 146.5h104q0 -131 -30.5 -213t-69.5 -128t-74 -63.5t-41 -19.5q4 -2 35 -16.5t65.5 -50.5t63.5 -97.5t29 -155.5q0 -55 -14.5 -112.5t-50.5 -105.5t-93.5 -77.5t-143.5 -29.5q-92 0 -149 21.5t-91 60t-46.5 90t-12.5 110.5v96q0 57 11.5 96.5t27 66t34 46t34.5 37.5 q12 16 25.5 41t13.5 41q0 35 -15.5 63.5t-62.5 28.5h-127z" />
<glyph unicode="&#xe0b;" horiz-adv-x="768" d="M45 782v82q14 0 28.5 -8t28.5 -18q14 -12 31 -27q14 14 31 27q14 10 32.5 18t41.5 8q59 0 98 -39t39 -116q0 -59 -26.5 -94t-55.5 -66q-8 -8 -22.5 -23.5t-29 -37t-24.5 -49t-10 -58.5v-125q0 -35 6 -68.5t26.5 -61.5t58.5 -45.5t103 -17.5q49 0 87 26t64 63.5t39 79.5 t13 75q0 53 -12 103.5t-39 89.5t-65.5 62.5t-92.5 23.5v84q51 0 93 30.5t72 83t46.5 121t16.5 146.5h104q0 -131 -30.5 -213t-69.5 -128t-74 -63.5t-41 -19.5q4 -2 35 -16.5t65.5 -50.5t63.5 -97.5t29 -155.5q0 -57 -15.5 -114.5t-50.5 -104.5t-94.5 -76.5t-145.5 -29.5 q-90 0 -146 21.5t-90 60t-46.5 90t-12.5 110.5v125q0 59 30 116.5t77 102.5q16 16 37.5 37t21.5 66q0 35 -20.5 49t-44.5 18q-12 0 -26.5 -9t-26.5 -19q-14 -12 -29 -31q-12 16 -25 31q-10 12 -24.5 22t-28.5 10z" />
<glyph unicode="&#xe0c;" horiz-adv-x="1392" d="M45 668q31 59 80 108q41 41 106.5 75t157.5 34q68 0 137.5 -14.5t126 -48.5t93 -87t36.5 -129v-405q27 -35 64 -60q31 -23 74 -40t96 -17q68 0 106.5 17.5t58 49t24.5 80t5 109.5v524h105v-585q0 -53 -11.5 -106.5t-39 -95.5t-73.5 -68.5t-116 -26.5q-78 0 -133 20.5 t-90 44.5q-41 29 -70 68v-115h-104v565q0 74 -27.5 120t-70.5 71.5t-94.5 35t-96.5 9.5q-59 0 -103 -21.5t-75 -46.5q-37 -29 -64 -65l123 -103q-12 -12 -20 -35q-8 -18 -13.5 -49.5t-5.5 -79.5v-276q0 -16 1 -27.5t18 -13.5h61v-84h-80q-61 0 -82.5 35t-21.5 100v266 q0 39 6 69t14 52q8 25 21 43q-35 29 -62 51q-23 18 -42 34t-19 18z" />
<glyph unicode="&#xe0d;" horiz-adv-x="1392" d="M45 668q31 59 80 108q41 41 106.5 75t159.5 34q68 0 136.5 -14.5t126 -48.5t93 -87t35.5 -129v-321q0 -92 39 -146.5t146 -54.5q59 0 105 18.5t77 40.5q37 27 63 62v659h103v-770q0 -70 -26.5 -134t-74 -114.5t-111 -80t-134.5 -29.5q-57 0 -101.5 14t-76.5 33 q-37 23 -68 49l33 82q23 -27 55 -47q29 -18 69 -32.5t93 -14.5q109 0 174 78.5t65 207.5v9q-31 -39 -71 -68q-35 -25 -85 -45t-116 -20q-78 0 -128 22.5t-78.5 63.5t-41 98t-12.5 127v272q0 72 -26.5 118t-68.5 71.5t-93.5 36t-100.5 10.5q-59 0 -104 -21.5t-76 -46.5 q-37 -29 -64 -65l123 -103q-12 -12 -20 -35q-8 -18 -13.5 -49.5t-5.5 -79.5v-276q0 -16 2.5 -27.5t18.5 -13.5h59v-84h-73q-53 0 -82 28.5t-29 106.5v266q0 39 6 69t14 52q8 25 21 43q-35 29 -62 51q-23 18 -42 34t-19 18z" />
<glyph unicode="&#xe0e;" horiz-adv-x="860" d="M43 0v84h61q16 2 19.5 13.5t3.5 27.5v276q0 39 6 69t14 52q8 25 21 43q-35 29 -62 51q-23 18 -42 34t-19 18q31 59 80 108q41 41 106.5 75t159.5 34q70 0 139.5 -14.5t126 -48.5t91 -87t34.5 -129v-743q0 -25 -5 -57.5t-25.5 -62.5t-62.5 -51.5t-116 -21.5 q-47 0 -88 15.5t-71 33.5q-37 23 -66 52q-31 -29 -72 -52q-35 -18 -89 -33.5t-124 -15.5v84q70 0 124.5 15.5t88.5 33.5q41 23 72 50q31 -29 66 -52q29 -20 67.5 -35.5t81.5 -15.5q66 0 90.5 30t24.5 93v692q0 74 -27.5 120t-69.5 71.5t-93.5 35t-96.5 9.5q-59 0 -104 -21.5 t-76 -46.5q-37 -29 -64 -65l123 -103q-12 -14 -20 -37q-8 -20 -14.5 -49.5t-6.5 -77.5v-266q0 -72 -26.5 -103.5t-81.5 -31.5h-78z" />
<glyph unicode="&#xe0f;" horiz-adv-x="860" d="M43 0v84h61q16 2 19.5 14.5t3.5 28.5v274q0 39 6 69t14 52q8 25 21 43q-35 29 -62 51q-23 18 -42 34t-19 18q31 59 80 108q41 41 106.5 75t157.5 34q68 0 137.5 -14.5t127 -48.5t93 -87t35.5 -129v-719q0 -23 -3 -59.5t-20.5 -71.5t-57 -60.5t-113.5 -25.5 q-33 0 -62.5 14.5t-52.5 32.5q-27 23 -53 50l-70 -107l-80 107q-31 -27 -65 -48q-29 -18 -67 -32.5t-75 -14.5v82q35 0 71 15.5t67 33.5q37 23 69 52l80 -105l72 100q2 -4 13 -19t29.5 -32.5t45.5 -31t57 -13.5q37 0 58.5 12.5t34 30t15.5 37t3 35.5v696q0 76 -27.5 122 t-70.5 71.5t-94.5 34t-96.5 8.5q-59 0 -103 -21.5t-75 -46.5q-37 -29 -64 -65l121 -103q-12 -14 -20 -37q-8 -20 -13.5 -49.5t-5.5 -77.5v-266q0 -78 -28.5 -106.5t-83.5 -28.5h-74z" />
<glyph unicode="&#xe10;" horiz-adv-x="829" d="M45 711q23 49 64 86q35 33 95 60.5t158 27.5q88 0 160 -27q20 6 48 16.5t52.5 25.5t41 35.5t16.5 49.5h104q0 -41 -16 -69.5t-43 -48t-57.5 -32t-59.5 -20.5q84 -59 129 -154.5t45 -207.5q0 -88 -23.5 -170t-69.5 -144.5t-115.5 -100.5t-161.5 -38h-103l-84 332 q-6 16 -16 17t-27 1h-37v84h78q47 0 61.5 -13t22.5 -30l90 -307q76 0 129.5 33t87 86t49 118.5t15.5 131.5q0 88 -27.5 153.5t-71.5 109.5t-101.5 65.5t-115.5 21.5q-76 0 -128 -29t-87 -63q-39 -41 -65 -93zM66 -344q51 0 86.5 15.5t60.5 33.5q27 23 47 49l72 -102l71 102 q0 -2 11.5 -17.5t31 -33.5t45 -32.5t56.5 -14.5q35 0 53 11t26.5 26.5t9.5 30t1 22.5v94h104v-92q0 -4 -1 -31.5t-16 -59.5t-51 -58.5t-106 -26.5q-47 0 -76.5 14.5t-50.5 32.5q-23 23 -37 49l-71 -106l-72 108q-16 -27 -43 -49q-23 -18 -60.5 -33.5t-90.5 -15.5v84z" />
<glyph unicode="&#xe11;" horiz-adv-x="880" d="M45 807v82q12 0 27.5 -8.5t29.5 -18.5q16 -12 31 -26q14 14 31 26q14 10 32.5 18.5t41.5 8.5q45 0 89 -31t44 -88q25 33 55 57q27 23 62.5 40.5t80.5 17.5q53 0 97.5 -27t75 -70t48 -96t17.5 -106v-586h-102v524q0 123 -44.5 189.5t-109.5 66.5q-53 0 -99 -30.5 t-84 -78.5t-67 -107.5t-48.5 -117t-29.5 -108.5t-10 -80v-14v-19v-225h-102v209q0 111 24.5 195.5t55 147t55 106.5t24.5 75q0 35 -21.5 51.5t-45.5 16.5q-12 0 -26.5 -9.5t-26.5 -19.5q-14 -12 -29 -29q-12 16 -25 31q-10 12 -23.5 22.5t-27.5 10.5z" />
<glyph unicode="&#xe12;" horiz-adv-x="1392" d="M45 442q0 121 21.5 206t57.5 138.5t84 77t101 23.5q14 0 33.5 -15.5t38.5 -33.5q23 -23 43 -47q23 25 45 47q18 18 38.5 33.5t35.5 15.5q53 0 98 -21.5t77 -57.5t49 -84t17 -101v-422q27 -35 62 -60q29 -23 72 -40t98 -17q68 0 106.5 17.5t59 49t25.5 80t5 109.5v524h105 v-585q0 -53 -12.5 -106.5t-41 -95.5t-75.5 -68.5t-117 -26.5q-78 0 -132 20.5t-89 44.5q-41 29 -66 68v-115h-104v623q0 68 -34 123t-99 55q-16 0 -38 -18.5t-40 -41.5q-23 -27 -45 -59q-23 33 -45 59q-18 23 -39 41.5t-37 18.5q-25 0 -52.5 -18.5t-50 -60.5t-36.5 -110.5 t-14 -169.5q0 -84 13 -153.5t41.5 -119.5t73 -78t105.5 -28q23 0 35 2.5t22 6.5q8 4 17 8v-82q-6 -4 -17 -8q-10 -4 -23.5 -6t-33.5 -2q-84 0 -147.5 35.5t-105.5 99t-63.5 146.5t-21.5 179z" />
<glyph unicode="&#xe13;" horiz-adv-x="1392" d="M45 668q31 59 80 108q41 41 107.5 75t160.5 34q70 0 139.5 -15.5t125 -49.5t90 -87t34.5 -127v-266q0 -61 5.5 -109.5t26 -80t58 -49t103.5 -17.5q57 0 101 17.5t75 39.5q37 25 61 60v663h103v-864h-103v115q-29 -39 -69 -68q-35 -25 -90.5 -45t-132.5 -20 q-68 0 -114 26.5t-73.5 68.5t-40 95t-12.5 107v286q0 74 -26.5 119t-68.5 71.5t-93.5 36t-98.5 9.5q-59 0 -105 -21.5t-77 -46.5q-37 -29 -64 -65l123 -103q-12 -12 -20 -35q-8 -18 -13.5 -49.5t-5.5 -79.5v-276q0 -16 1 -27.5t18 -13.5h61v-84h-82q-61 0 -81.5 35 t-20.5 100v266q0 39 6 69t14 52q8 25 21 43q-35 29 -62 51q-23 18 -42 34t-19 18z" />
<glyph unicode="&#xe14;" horiz-adv-x="860" d="M45 442q0 123 35 207t89 136.5t121.5 76t133.5 23.5t130 -14.5t115.5 -48.5t83 -87t31.5 -129v-606h-104v612q0 45 -21.5 80t-57.5 59.5t-82 37t-95 12.5t-98.5 -22.5t-88 -66.5t-63 -112t-24.5 -158q0 -82 13 -151.5t41.5 -119.5t73 -79t105.5 -29q23 0 35 2.5t22 6.5 q8 4 17 8v-84q-6 -4 -15 -8q-16 -6 -57 -6q-74 0 -136.5 31.5t-107.5 91t-70.5 144.5t-25.5 193z" />
<glyph unicode="&#xe15;" horiz-adv-x="860" d="M45 442q0 121 21.5 206t57.5 138.5t84 77t101 23.5q23 0 43.5 -15.5t36.5 -33.5q18 -23 35 -47q16 25 37 47q16 18 37.5 33.5t44.5 15.5q45 0 88 -21.5t76.5 -57.5t55 -84t21.5 -101v-623h-104v623q0 33 -11.5 64.5t-29.5 57t-42 41t-48 15.5q-16 0 -36.5 -18.5 t-41.5 -41.5q-23 -27 -47 -59q-23 33 -45 59q-18 23 -39 41.5t-37 18.5q-25 0 -51.5 -18.5t-50 -60.5t-37.5 -109.5t-14 -168.5q0 -78 12 -146.5t39.5 -120.5t71.5 -83t110 -31q23 0 35 2.5t22 6.5q8 4 17 8v-82q-8 -4 -17 -8q-20 -8 -53 -8q-84 0 -148.5 35.5t-107.5 97 t-64.5 145.5t-21.5 182z" />
<glyph unicode="&#xe16;" horiz-adv-x="860" d="M45 668q31 59 80 108q41 41 105.5 75t158.5 34q68 0 137.5 -14.5t126 -48.5t93 -87t36.5 -129v-491q0 -29 -11 -48.5t-26 -35.5q-16 -18 -36 -31h-31v565q0 74 -27.5 120t-70.5 71.5t-94.5 35t-96.5 9.5q-59 0 -103 -21.5t-77 -46.5q-37 -29 -66 -65l123 -103 q-10 -12 -18 -35q-6 -18 -11.5 -49.5t-5.5 -79.5v-276q0 -16 2.5 -27.5t18.5 -13.5h59v-84h-67q-61 0 -89 30.5t-28 104.5v266q0 39 6 69t14 52q8 25 21 43q-35 29 -62 51q-23 18 -42 34t-19 18z" />
<glyph unicode="&#xe17;" horiz-adv-x="849" d="M76 0v864h104v-114q33 37 80 67q41 25 98.5 46.5t135.5 21.5q70 0 122 -28t86.5 -71t53 -96t18.5 -104v-586h-104v524q0 135 -55.5 195.5t-178.5 60.5q-57 0 -103 -17.5t-81 -39.5q-39 -25 -72 -57v-666h-104z" />
<glyph unicode="&#xe18;" horiz-adv-x="849" d="M76 670q0 70 38 112.5t93 66t117.5 32t109.5 8.5q57 0 113.5 -12.5t103.5 -28.5q53 -18 103 -39v-82q-51 20 -105 37q-47 14 -103.5 26.5t-111.5 12.5q-31 0 -75 -2t-83.5 -15.5t-67.5 -40t-28 -75.5q0 -61 44 -84t109.5 -31t143.5 -14t143.5 -33t109.5 -86.5t44 -173.5 q0 -49 -17.5 -96.5t-57.5 -85t-105.5 -61t-161.5 -23.5q-31 0 -87 4t-111.5 29.5t-96.5 82t-41 160.5v156h105v-156q0 -72 25.5 -110.5t62.5 -57t77 -23t68 -4.5q55 0 99.5 15.5t75 42t46 59.5t15.5 68q0 94 -44 138t-109.5 61.5t-143.5 22.5t-143.5 20.5t-109.5 54.5 t-44 125z" />
<glyph unicode="&#xe19;" horiz-adv-x="849" d="M76 279v589h104v-524q0 -61 10.5 -109.5t38 -82t72.5 -51t117 -17.5q53 0 99 17.5t81 39.5q39 25 72 58v669h104v-868h-104v115q-35 -39 -80 -68q-41 -25 -97.5 -45t-134.5 -20q-70 0 -122 26.5t-87.5 69.5t-54 95t-18.5 106z" />
<glyph unicode="&#xe1a;" horiz-adv-x="829" d="M76 293v571h104v-579q0 -35 9.5 -74t32 -72t58 -54.5t89.5 -21.5h86q51 0 89 21.5t60.5 54.5t33.5 72t11 74v579h105v-571q0 -59 -17.5 -115.5t-51.5 -99.5t-85 -69.5t-119 -26.5h-143q-68 0 -117 26.5t-80.5 69.5t-48 99t-16.5 116z" />
<glyph unicode="&#xe1b;" horiz-adv-x="829" d="M76 293v571h104v-579q0 -35 9.5 -74t32 -72t57 -54.5t88.5 -21.5h86q51 0 89 21.5t61.5 54.5t34.5 72t11 74v845h105v-837q0 -59 -17.5 -115.5t-51.5 -99.5t-85 -69.5t-117 -26.5h-143q-68 0 -118 26.5t-83 69.5t-48 99t-15 116z" />
<glyph unicode="&#xe1c;" horiz-adv-x="1005" d="M76 666q0 27 3 61.5t14 65t36 51t68 20.5h79v-82l-55 -2q-16 0 -26.5 -14t-14.5 -32.5t-5 -38t-1 -31.5q-2 -92 14.5 -179.5t36.5 -156.5q23 -82 54 -154l188 453h45l186 -453q29 57 54 154q23 82 43 213t30 323h105q-16 -209 -45 -368.5t-60 -270.5q-37 -129 -75 -225 h-72l-191 461l-190 -461h-70q-43 100 -75 211q-29 94 -52.5 213t-23.5 242z" />
<glyph unicode="&#xe1d;" horiz-adv-x="1005" d="M76 666q0 27 3 61.5t15 65t37 51t68 20.5h77v-82l-55 -2q-16 0 -26.5 -14t-14.5 -32.5t-5 -38t-1 -31.5q0 -92 15.5 -179.5t35.5 -156.5q23 -82 54 -154l188 453h45l186 -453q35 96 64 240q23 123 43 305t20 436h105q0 -279 -28 -492.5t-62 -361.5q-39 -172 -90 -301h-70 l-191 463l-190 -463h-72q-43 100 -75 211q-29 94 -52.5 213t-23.5 242z" />
<glyph unicode="&#xe1e;" horiz-adv-x="1050" d="M14 864h97l184 -641l194 641h66l193 -641l184 641h98l-246 -864h-57l-205 690l-203 -690h-59z" />
<glyph unicode="&#xe1f;" horiz-adv-x="1132" d="M14 864h97l184 -641l194 641h66l193 -641l268 932h96l-328 -1155h-57l-205 692l-203 -692h-59z" />
<glyph unicode="&#xe20;" horiz-adv-x="860" d="M43 0v84h61q16 2 18.5 13.5t2.5 27.5l2 276q0 39 6 69t14 52q8 25 21 43q-35 29 -62 51q-23 18 -42 34t-19 18q31 59 80 108q41 41 107.5 75t160.5 34q63 0 133 -14.5t126.5 -48.5t93 -87t36.5 -129v-491q0 -29 -11 -48.5t-26 -35.5q-16 -18 -36 -31h-31v565 q0 74 -27.5 120t-68.5 71.5t-92.5 35t-96.5 9.5q-61 0 -107 -21.5t-77 -46.5q-37 -29 -62 -65l123 -103q-12 -14 -20 -37q-8 -20 -14.5 -49.5t-6.5 -77.5v-266q0 -78 -27.5 -106.5t-88.5 -28.5h-70z" />
<glyph unicode="&#xe21;" horiz-adv-x="849" d="M76 0v864h104v-657q33 -37 74 -66q35 -25 82 -44t102 -19q125 0 178.5 62.5t53.5 195.5v528h104v-585q0 -55 -18.5 -108.5t-55 -95.5t-89 -67.5t-119.5 -25.5q-78 0 -136.5 20.5t-97.5 44.5q-47 29 -78 68v-115h-104z" />
<glyph unicode="&#xe22;" horiz-adv-x="798" d="M45 248q0 72 30.5 120t67.5 76q43 33 101 50q-51 10 -90 34q-35 23 -61.5 61t-26.5 99q0 57 20 95t50 60.5t65 32t63 9.5q37 0 61.5 -2t41.5 -6q18 -4 28 -9v-82q-10 2 -26 7q-14 4 -36 6t-54 2q-53 0 -81 -36t-28 -77q0 -66 63.5 -108.5t161.5 -42.5v-84 q-66 0 -111.5 -21.5t-75.5 -53.5t-44 -68t-14 -62q0 -37 9 -71t35.5 -59.5t71.5 -40t117 -14.5q68 0 114 21.5t72.5 54.5t37.5 72t11 74v579h105v-571q0 -59 -18.5 -115.5t-59.5 -99.5t-105.5 -69.5t-156.5 -26.5q-96 0 -160.5 19t-103.5 54t-56.5 84.5t-17.5 108.5z" />
<glyph unicode="&#xe23;" horiz-adv-x="706" d="M76 57v90q37 -25 78 -43q35 -16 83 -28.5t101 -12.5t90 15.5t58.5 42t30.5 59.5t9 68q0 61 -33.5 93t-83 50.5t-108.5 31.5t-108.5 38.5t-83 73t-33.5 133.5q0 53 24.5 94t63.5 68.5t89 41t99 13.5q59 0 104.5 -12.5t73.5 -26.5q35 -16 60 -37v-86q-25 20 -62 39 q-31 14 -74.5 26.5t-103.5 12.5q-31 0 -61.5 -8.5t-54 -24.5t-39 -41t-15.5 -57q0 -59 34 -91t83 -51.5t108.5 -34t108.5 -41t83 -73.5t34 -131q0 -49 -11.5 -97.5t-44 -86t-91 -60t-152.5 -22.5q-59 0 -105.5 11t-81.5 25q-39 16 -69 39z" />
<glyph unicode="&#xe24;" horiz-adv-x="860" d="M45 668q31 59 80 108q41 41 106.5 75t159.5 34q66 0 135.5 -14.5t126 -48.5t93 -87t36.5 -129v-919q0 -29 -11 -48.5t-26 -35.5q-16 -18 -36 -31h-31v993q0 74 -27.5 119t-68.5 71.5t-92.5 36t-96.5 9.5q-59 0 -105 -21.5t-79 -46.5q-37 -29 -66 -65l123 -103 q-10 -12 -18 -35q-6 -18 -11.5 -49.5t-5.5 -79.5v-276q0 -16 2.5 -27.5t18.5 -13.5h59v-84h-71q-59 0 -86 30.5t-27 104.5v266q0 39 6 69t14 52q8 25 21 43q-35 29 -62 51q-23 18 -42 34t-19 18z" />
<glyph unicode="&#xe25;" horiz-adv-x="778" d="M45 217q0 76 30.5 127t79 80t110 41t122.5 12q70 0 111 6t63 17q25 10 37 24v54q0 41 -11.5 81.5t-37 72.5t-65.5 51.5t-97 19.5q-70 0 -123 -27.5t-90 -62.5q-43 -39 -74 -88l-34 86q29 49 73 86q39 33 99.5 60.5t148.5 27.5q162 0 238.5 -85t76.5 -255v-545h-104v436 q-16 -14 -45 -22q-25 -10 -64.5 -16.5t-101.5 -6.5q-31 0 -72 -9t-77.5 -28.5t-62 -53.5t-25.5 -83q0 -43 15 -71.5t39.5 -47t55.5 -27t62 -8.5q45 0 69 7q14 4 25 8v-80q-10 -4 -25 -8q-12 -4 -28.5 -6t-36.5 -2q-281 0 -281 235z" />
<glyph unicode="&#xe26;" horiz-adv-x="860" d="M43 0v84h61q16 2 18.5 13.5t2.5 27.5l2 276q0 39 6 69t14 52q8 25 21 43q-35 29 -62 51q-23 18 -42 34t-19 18q31 59 80 108q41 41 106.5 75t157.5 34q70 0 139.5 -14.5t126 -48.5t92 -87t35.5 -129v-919q0 -29 -11 -48.5t-26 -35.5q-16 -18 -36 -31h-31v993 q0 76 -27.5 122t-70.5 71.5t-94.5 34t-96.5 8.5q-59 0 -103 -21.5t-77 -46.5q-37 -29 -66 -65l123 -103q-10 -14 -18 -37q-8 -20 -13.5 -49.5t-5.5 -77.5v-266q0 -78 -27.5 -106.5t-86.5 -28.5h-72z" />
<glyph unicode="&#xe27;" horiz-adv-x="765" d="M45 74l33 84q23 -27 59 -47q29 -18 75 -33t107 -15q68 0 122.5 28t93 77t60 116.5t21.5 147.5q0 162 -80.5 255t-216.5 93q-61 0 -107 -11t-75 -26q-35 -16 -57 -36l-35 84q16 25 53 47q31 16 84.5 31.5t139.5 15.5q82 0 154.5 -29t126.5 -86t86 -142t32 -196t-32 -195.5 t-87 -141t-128 -85t-155 -28.5q-86 0 -138 14t-83 31q-37 20 -53 47z" />
<glyph unicode="&#xe28;" horiz-adv-x="870" d="M76 0v606q0 68 30.5 120t81 87t116 53.5t134.5 18.5q35 0 66 -3t61 -14q20 8 42 19.5t40.5 25t30.5 32t12 40.5h105q0 -68 -43 -102.5t-90 -55.5q57 -35 95 -89t38 -132v-606h-105v606q0 49 -22.5 86t-57.5 60.5t-81 36t-91 12.5q-47 0 -93 -11.5t-83 -35t-59.5 -60.5 t-22.5 -88v-262q27 37 64 66q31 25 71.5 45t90.5 20v-104q-47 0 -88.5 -17.5t-71.5 -38.5q-37 -23 -66 -53v-262h-104z" />
<glyph unicode="&#xe29;" horiz-adv-x="829" d="M76 293v571h104v-581q0 -35 9.5 -73t32 -71t57 -54.5t88.5 -21.5h86q51 0 88 21.5t61.5 54.5t35.5 72t11 74v147h-184v92h184v338h105v-338h61v-92h-61v-139q0 -55 -16.5 -110.5t-50.5 -99.5t-85 -72.5t-121 -28.5h-143q-70 0 -120 27.5t-82 72.5t-46 100.5t-14 110.5z " />
<glyph unicode="&#xe2a;" horiz-adv-x="778" d="M45 217q0 76 32 127t81 80t111.5 41t123.5 12q70 0 109 6t61 17q23 10 33 24v54q0 41 -11.5 81.5t-36 72.5t-64.5 51.5t-97 19.5q-70 0 -123 -27.5t-90 -62.5q-43 -39 -76 -88l-32 86q29 49 73 86q39 33 99.5 60.5t148.5 27.5q23 0 45.5 -2t44.5 -9q45 16 82 44t37 67 h102q0 -59 -35.5 -94t-84.5 -55q63 -43 92.5 -117t29.5 -174v-545h-104v436q-14 -14 -41 -22q-23 -10 -61.5 -16.5t-100.5 -6.5q-31 0 -74 -8t-80.5 -27.5t-64.5 -53.5t-27 -85q0 -43 15.5 -71.5t40 -47t55.5 -27t61 -8.5q45 0 70 7q14 4 25 8v-78q-10 -6 -23 -10 q-12 -4 -29.5 -6t-39.5 -2q-276 0 -277 235z" />
<glyph unicode="&#xe2b;" horiz-adv-x="808" d="M76 0v864h104v-403l402 403h135l-285 -286q41 -8 93.5 -28t98.5 -57.5t77.5 -100t31.5 -154.5v-238h-104v209q0 90 -31 149.5t-73 95t-84 51t-64 19.5l-197 -200v-324h-104z" />
<glyph unicode="&#xe2c;" horiz-adv-x="1132" d="M14 864h97l184 -645l194 645h66l193 -645l147 518q4 12 6 25.5t2 23.5q0 39 -20.5 67t-44.5 46q-29 23 -66 35q70 18 123 49q47 27 85 69t38 103h94q0 -78 -37 -122t-80 -66q-53 -27 -116 -35q37 -18 65 -41q25 -20 43.5 -51t13.5 -72q0 -14 -6 -35l-211 -733h-61 l-201 688l-200 -688h-62z" />
<glyph unicode="&#xe2d;" horiz-adv-x="849" d="M43 309q0 61 17.5 93t78.5 32h172v-84h-133q-31 -4 -31 -31q-2 -43 8.5 -88t41 -82.5t83 -61.5t134.5 -24q76 0 130 28t88 77t50 116.5t16 147.5q0 78 -18 145.5t-54 116.5t-89.5 78t-120.5 29q-86 0 -137.5 -29t-79.5 -63q-35 -41 -52 -93h-102q14 74 59 134 q39 51 112 93t200 42q106 0 181 -41t120 -106.5t65.5 -146.5t20.5 -159q0 -119 -32 -204t-85 -140t-123.5 -80.5t-146.5 -25.5q-78 0 -146.5 20.5t-119 62t-79 103t-28.5 141.5z" />
<glyph unicode="&#xe2e;" horiz-adv-x="849" d="M43 309q0 68 19.5 96.5t76.5 28.5h172v-84h-133q-31 0 -31 -31q-2 -43 9.5 -89t41 -82.5t82 -60.5t134.5 -24q76 0 130 28t89 77t50 116.5t15 147.5q0 78 -18 145.5t-54 116.5t-89.5 78t-120.5 29q-86 0 -138.5 -29t-80.5 -63q-35 -41 -50 -93h-102q14 74 59 134 q39 51 112 93t200 42q33 0 60.5 -4t49.5 -11q20 6 44 15.5t44.5 24t35 33t14.5 42.5h96q0 -35 -12.5 -60.5t-33 -44t-44 -30.5t-47.5 -21q49 -33 82.5 -78.5t55 -98t32 -110t10.5 -110.5q0 -119 -32 -204t-85 -140t-123.5 -80.5t-146.5 -25.5q-78 0 -146.5 20.5t-119 62 t-79 103t-28.5 141.5z" />
<glyph unicode="&#xe2f;" horiz-adv-x="778" d="M45 864h105q23 -86 62.5 -135t125.5 -49q92 0 162.5 47t93.5 137h106v-571q0 -68 -5 -121t-23.5 -92t-55 -59.5t-100.5 -20.5v84q20 0 35.5 4t26 24.5t14.5 64.5t4 122v455q-23 -43 -59 -78q-31 -29 -79 -54.5t-114 -25.5q-123 0 -199.5 66.5t-99.5 201.5z" />
<glyph unicode="&#xe30;" horiz-adv-x="501" d="M76 279v53h96v-78q0 -27 16.5 -38t69.5 -11h164l-35 -82h-149q-80 0 -121 30.5t-41 125.5zM76 729v53h96v-75q0 -27 16.5 -38.5t69.5 -11.5h164l-35 -82h-147q-78 0 -121 30t-43 124z" />
<glyph unicode="&#xe31;" d="M-492 1176v53h97v-78q0 -27 16.5 -38t69.5 -11h356l-33 -84h-342q-86 0 -125 34.5t-39 123.5z" />
<glyph unicode="&#xe32;" horiz-adv-x="675" d="M45 725v84q23 20 55 37q29 14 69 26.5t93 12.5q55 0 114.5 -17.5t110 -56.5t82 -99.5t31.5 -146.5v-565h-104v545q0 68 -20.5 116t-56.5 78.5t-82 46t-97 15.5q-39 0 -74 -12.5t-62 -26.5q-33 -16 -59 -37z" />
<glyph unicode="&#xe33;" horiz-adv-x="675" d="M-385 1176q0 63 45 108t111 45t110.5 -45t44.5 -108q0 -66 -45 -112t-110 -46q-66 0 -111 46t-45 112zM-301 1174q0 -29 21.5 -50.5t50.5 -21.5t51 21.5t22 50.5t-22.5 51t-50.5 22q-29 0 -50.5 -22t-21.5 -51zM45 725v84q23 20 55 37q29 14 69 26.5t93 12.5 q55 0 114.5 -17.5t110 -56.5t82 -99.5t31.5 -146.5v-565h-104v545q0 68 -20.5 116t-56.5 78.5t-82 46t-97 15.5q-39 0 -74 -12.5t-62 -26.5q-33 -16 -59 -37z" />
<glyph unicode="&#xe34;" d="M-670 1018l33 88h518v-88h-551z" />
<glyph unicode="&#xe35;" d="M-670 1018l33 86h414v125h104v-211h-551z" />
<glyph unicode="&#xe36;" d="M-670 1018l35 86h273l-7 31q-2 55 35 95t92 40q47 0 85 -35t38 -90q0 -51 -33.5 -89t-89.5 -38h-428zM-287 1143q0 -16 12.5 -28.5t28.5 -12.5q18 0 31.5 12t13.5 29q0 18 -13 31.5t-32 13.5q-16 0 -28.5 -13.5t-12.5 -31.5z" />
<glyph unicode="&#xe37;" d="M-670 1018l33 86h254v125h90v-125h70v125h104v-211h-551z" />
<glyph unicode="&#xe38;" d="M-281 -152h82q59 0 92 -37.5t33 -97.5v-137h-104v137q0 18 -12.5 33.5t-32.5 15.5h-58v86z" />
<glyph unicode="&#xe39;" d="M-520 -152h78q66 0 97.5 -38.5t31.5 -104.5q0 -63 67 -63q68 0 68 63v143h104v-143q0 -29 -6 -55.5t-24.5 -47t-51 -32.5t-86.5 -12q-59 0 -94 13t-53.5 34.5t-23.5 50t-5 57.5q0 18 -12 33.5t-33 15.5h-57v86z" />
<glyph unicode="&#xe3a;" d="M-178 -152h104v-108h-104v108z" />
<glyph unicode="&#xe3f;" horiz-adv-x="768" d="M76 0v987h196v174h99v-174q123 -4 191.5 -67.5t68.5 -159.5q0 -80 -48 -146.5t-130 -89.5q98 -16 168.5 -79.5t70.5 -165.5q0 -61 -23.5 -111.5t-66.5 -87.5t-102.5 -57.5t-128.5 -22.5v-170h-99v170h-196zM180 84h164q51 0 96 14.5t78 40t51.5 61.5t18.5 79 q0 98 -72 151t-194 53h-142v-399zM180 567h129q106 0 161.5 45t55.5 127q0 74 -46 119t-158 45h-142v-336z" />
<glyph unicode="&#xe40;" horiz-adv-x="307" d="M76 135v729h104v-739q0 -16 2 -27.5t19 -13.5h61v-84h-74q-61 0 -86.5 31.5t-25.5 103.5z" />
<glyph unicode="&#xe41;" horiz-adv-x="655" d="M76 135v729h104v-739q0 -16 2 -27.5t19 -13.5h61v-84h-69q-61 0 -89 30.5t-28 104.5zM414 135v729h104v-739q0 -16 2 -27.5t19 -13.5h61v-84h-70q-61 0 -88.5 30.5t-27.5 104.5z" />
<glyph unicode="&#xe42;" horiz-adv-x="415" d="M143 1145q0 92 63.5 132t215.5 40h166v-86h-158q-109 0 -145.5 -19.5t-36.5 -68.5q0 -29 6 -57.5t14 -65.5t14.5 -85t6.5 -112v-698q0 -16 2 -27.5t18 -13.5h62v-84h-70q-61 0 -89 28.5t-28 106.5v688q0 63 -6 111.5t-14 85.5t-14.5 66.5t-6.5 58.5z" />
<glyph unicode="&#xe43;" horiz-adv-x="538" d="M0 1247q12 23 37 43q23 16 59.5 30.5t96.5 14.5q125 0 190.5 -61.5t65.5 -194.5q0 -47 -6.5 -74.5t-14.5 -57t-14 -68.5t-6 -107v-649q0 -16 2 -27.5t18 -13.5h61v-82h-71q-59 0 -87 28.5t-28 106.5v637q0 61 6 104.5t14.5 78t14.5 64.5t6 60q0 102 -46 137t-114 35 q-41 0 -68.5 -14t-45.5 -31q-23 -20 -35 -45z" />
<glyph unicode="&#xe44;" horiz-adv-x="538" d="M0 1231v84q35 0 61.5 -9.5t46 -21.5t31 -24.5t15.5 -16.5q12 20 30 37q16 14 40 25.5t59 11.5q45 0 68.5 -22.5t33.5 -60.5t11 -89t1 -109v-911q0 -16 2 -27.5t19 -13.5h61v-84h-71q-59 0 -87 28.5t-28 106.5v901q0 20 1 57t-3 71t-16.5 55.5t-41.5 11.5 q-16 -6 -27 -21.5t-22 -31.5q-10 -18 -18 -39q-23 25 -49 45q-23 16 -52.5 31.5t-64.5 15.5z" />
<glyph unicode="&#xe45;" horiz-adv-x="675" d="M45 725v84q23 20 55 37q29 14 68 26.5t92 12.5q55 0 115.5 -17.5t111 -56.5t82 -99.5t31.5 -146.5v-878q0 -29 -12.5 -48.5t-26.5 -35.5q-16 -18 -37 -31h-28v973q0 131 -75 193.5t-181 62.5q-39 0 -74 -12.5t-62 -26.5q-33 -16 -59 -37z" />
<glyph unicode="&#xe46;" horiz-adv-x="798" d="M45 647q0 109 53.5 173.5t141.5 64.5q23 0 47 -15.5t47 -31.5q25 -23 49 -47q25 25 49 47q23 16 47.5 31.5t46.5 15.5q51 0 89 -19.5t61.5 -53.5t35 -77t11.5 -88v-960q0 -29 -12.5 -48.5t-26.5 -35.5q-16 -18 -37 -31h-29v1034q0 39 -5 74t-17 61.5t-33.5 43t-56.5 16.5 q-16 0 -38 -17.5t-40 -40.5q-23 -25 -45 -57q-23 33 -45 57q-18 23 -38.5 40.5t-37.5 17.5q-53 0 -82.5 -46t-29.5 -108q0 -41 9 -68.5t19 -43.5q12 -20 31 -33l-35 -88q-37 12 -65 43q-25 27 -44.5 71.5t-19.5 118.5z" />
<glyph unicode="&#xe47;" d="M-653 1155q0 53 20.5 85t49 47.5t57 19.5t47.5 4h164q47 0 76.5 7t45.5 17q20 10 31 25v-82q-10 -12 -31 -21q-16 -8 -45.5 -13t-76.5 -5h-144q-61 0 -83.5 -24.5t-22.5 -59.5q0 -18 15 -41.5t50 -23.5q29 0 44.5 9t25.5 19q10 12 14 31h37q2 -18 10 -31q6 -10 18.5 -19 t35.5 -9q39 0 51 23.5t12 35.5h90q0 -59 -39 -95t-94 -36q-23 0 -41 5t-33 11q-16 8 -28 19q-12 -10 -31 -19q-16 -6 -38.5 -11t-53.5 -5q-18 0 -42 6t-43.5 22.5t-33.5 42t-14 66.5z" />
<glyph unicode="&#xe48;" d="M-178 1018v211h104v-211h-104z" />
<glyph unicode="&#xe49;" d="M-543 1143v86h129q31 0 56.5 -26.5t25.5 -57.5q0 -16 12.5 -28.5t28.5 -12.5h279l-33 -86h-293q-49 0 -76.5 27.5t-27.5 56.5q0 27 -12.5 34t-24.5 7h-64z" />
<glyph unicode="&#xe4a;" d="M-565 1094q0 55 39 95t94 40q23 0 40 -6t30 -15q12 -8 22 -20q8 12 23 20q10 8 28.5 14.5t40.5 6.5q59 0 88 -33t29 -72q0 -16 6 -18t16 -2h97l-33 -86h-86q-57 0 -74.5 22.5t-17.5 53.5q0 29 -12.5 45t-32.5 16q-27 0 -40.5 -19.5t-13.5 -41.5h-36q0 20 -11.5 40.5 t-42.5 20.5q-16 0 -33.5 -16.5t-17.5 -44.5q0 -35 19 -58q8 -10 18 -18h-102q-10 6 -19 16q-8 10 -13 23.5t-5 36.5z" />
<glyph unicode="&#xe4b;" d="M-281 1081v86h103v62h104v-62h101v-86h-101v-63h-104v63h-103z" />
<glyph unicode="&#xe4c;" d="M-358 1018v37q0 76 43 125t129 49h92l-33 -86h-37q-43 0 -66.5 -25.5t-23.5 -64.5v-35h-104z" />
<glyph unicode="&#xe4d;" d="M-385 1176q0 63 45 108t111 45t110.5 -45t44.5 -108q0 -66 -45 -111t-110 -45q-66 0 -111 45t-45 111zM-301 1174q0 -29 21.5 -50.5t50.5 -21.5t51 21.5t22 50.5t-22.5 51t-50.5 22q-29 0 -50.5 -22t-21.5 -51z" />
<glyph unicode="&#xe4e;" d="M-453 1090q0 61 44 102t116 41q0 66 43 97.5t150 31.5v-64q-31 0 -56.5 -1t-44 -13t-29 -39.5t-10.5 -81.5q-43 0 -79.5 -15t-36.5 -63q0 -33 14 -51q8 -10 16 -16h-108q-10 20 -14.5 37.5t-4.5 34.5z" />
<glyph unicode="&#xe4f;" horiz-adv-x="911" d="M76 360q0 80 29.5 150t82 122t121 81.5t148.5 29.5t149.5 -29.5t121.5 -81.5t82 -122t30 -150t-30 -148.5t-82 -119.5t-121.5 -80.5t-149.5 -29.5t-148.5 29.5t-121 80.5t-82 120t-29.5 148zM182 360q0 -55 21.5 -105t59.5 -88t88 -59.5t106 -21.5q57 0 107 21.5t87 59.5 t58.5 88t21.5 105q0 57 -21.5 107.5t-58.5 87.5t-87 58.5t-107 21.5q-55 0 -105.5 -21.5t-88.5 -58.5t-59.5 -87t-21.5 -108zM270 360q0 39 14.5 73t40 59.5t59.5 40t73 14.5q78 0 132 -54.5t54 -132.5q0 -39 -14.5 -72.5t-40 -59t-59 -40t-72.5 -14.5q-78 0 -132.5 54.5 t-54.5 131.5z" />
<glyph unicode="&#xe50;" horiz-adv-x="851" d="M45 360q0 80 29.5 150t81 121t121 80.5t149.5 29.5t148.5 -29.5t121 -80.5t82 -121t29.5 -150t-29.5 -148.5t-82 -119.5t-121 -80.5t-148.5 -29.5t-148.5 29.5t-121 80.5t-82 119.5t-29.5 148.5zM150 360q0 -61 21.5 -114t58 -93t87 -63.5t107.5 -23.5t108.5 23.5 t89 63.5t59 93t21.5 114t-21.5 115.5t-59 94.5t-89 63.5t-108.5 23.5t-107.5 -23.5t-87 -63.5t-58 -94.5t-21.5 -115.5z" />
<glyph unicode="&#xe51;" horiz-adv-x="849" d="M45 434q0 57 25.5 112.5t74 99.5t116 70.5t151.5 26.5q78 0 148.5 -25.5t124.5 -77.5t87 -129t33 -181q0 -84 -36 -159t-98.5 -130t-145.5 -88t-177 -33h-10t-12 2l24 80h8q61 0 122 24.5t110 68.5t79.5 104.5t30.5 130.5q0 84 -22.5 145.5t-62.5 102t-92 60t-111 19.5 q-78 0 -128.5 -25.5t-80 -61t-41.5 -73.5t-12 -63q0 -35 11 -68.5t28.5 -59t41 -41t48.5 -15.5q53 0 73.5 22.5t20.5 57.5v39h104v-37q0 -27 -9 -56.5t-31.5 -54t-61.5 -41t-96 -16.5q-43 0 -85 18.5t-75 53t-53.5 85t-20.5 113.5z" />
<glyph unicode="&#xe52;" horiz-adv-x="1064" d="M14 1067v84h31q76 0 122 -28.5t72.5 -71.5t36 -94.5t9.5 -96.5v-629q0 -51 19.5 -82.5t47 -49t59 -23.5t54.5 -6h268q27 0 58.5 6t59.5 24.5t46 51t18 88.5v231q0 33 -7 64.5t-21.5 56t-38 40t-53.5 15.5q-23 0 -40.5 -12t-29.5 -29q-14 -18 -25 -41q-12 23 -24 41 q-12 16 -27.5 28.5t-38.5 12.5q-47 0 -76.5 -27.5t-29.5 -66.5q0 -47 17.5 -74.5t43 -42t55 -19.5t52.5 -5v-84q-35 0 -82 8t-90 32.5t-73 69.5t-30 119q0 27 11.5 59.5t34 60.5t56 46t79.5 18q31 0 53 -7t39 -17q18 -10 32 -25q10 14 29 25q14 10 37 17t53 7q51 0 88 -23.5 t61.5 -62.5t37 -87t12.5 -97v-221q0 -76 -23.5 -127t-59.5 -83t-81 -45t-88 -13h-326q-45 0 -92 13t-86 45t-63.5 83t-24.5 127v616q0 33 -5 68t-22.5 64.5t-49 49t-85.5 19.5z" />
<glyph unicode="&#xe53;" horiz-adv-x="1054" d="M45 365q0 190 68.5 284t183.5 94q61 0 104 -27.5t72 -62.5q33 -39 51 -88q18 49 51 88q27 35 70 62.5t105 27.5q113 0 186.5 -92t73.5 -286q0 -86 -15.5 -153t-33.5 -114q-23 -55 -50 -98h-106q27 41 49 96q18 47 34.5 115t16.5 154q0 57 -11 110t-32.5 93t-54.5 64.5 t-76 24.5q-29 0 -58.5 -19.5t-52 -57t-37 -96t-14.5 -134.5h-84q0 70 -14 127.5t-37.5 97t-53.5 61t-58 21.5q-68 0 -121.5 -72.5t-53.5 -219.5q0 -57 13.5 -111.5t41 -96.5t67.5 -68t93 -26q35 0 56 11q10 4 18 10v-86q-10 -4 -22 -8q-10 -4 -23.5 -6t-30.5 -2 q-63 0 -120.5 28.5t-100.5 79.5t-68.5 121t-25.5 154z" />
<glyph unicode="&#xe54;" horiz-adv-x="1024" d="M45 350q0 70 20.5 136.5t57.5 118.5t89 84t118 32h348q33 0 62.5 6t52 22.5t37 48t14.5 83.5v270l104 2v-250q0 -76 -19.5 -127t-53 -82.5t-79.5 -45t-100 -13.5h-370q-43 0 -76 -26.5t-55.5 -67.5t-33.5 -91.5t-11 -99.5q0 -47 10 -94t30.5 -84t51 -60.5t73.5 -23.5 l377 -4q-57 31 -100 74q-39 37 -69.5 93t-30.5 132h108q0 -66 25.5 -120t62.5 -94t80 -62.5t78 -22.5h102v-84h-620q-72 0 -124 29.5t-88 78t-53.5 112t-17.5 130.5z" />
<glyph unicode="&#xe55;" horiz-adv-x="1024" d="M45 350q0 70 19.5 136.5t56.5 118.5t90 84t119 32h104q-14 28 -14 67q0 66 46 112t112 46t111.5 -46t45.5 -112q0 -37 -12 -67q47 6 84 36.5t37 112.5v281h102v-250q0 -76 -17.5 -127t-49 -81.5t-74.5 -44t-94 -13.5h-385q-43 0 -76 -26.5t-56.5 -67.5t-35 -91.5 t-11.5 -99.5t10.5 -96t32 -85t54 -61.5t78.5 -23.5h370q-57 31 -100 74q-39 37 -69.5 93t-30.5 132h106q0 -66 24.5 -120t62.5 -94t82 -62.5t81 -22.5h98v-84h-620q-70 0 -122 28.5t-88 77t-53.5 112t-17.5 132.5zM516 791q0 -27 17.5 -44.5t44.5 -17.5h6q23 4 39 20.5 t16 41.5t-18.5 43t-42.5 18q-27 0 -44.5 -18t-17.5 -43z" />
<glyph unicode="&#xe56;" horiz-adv-x="1167" d="M14 1067v86h43q98 0 160 -53t103.5 -138t70.5 -189.5t62 -207.5q23 49 61 88q35 33 89 60.5t138 27.5q88 0 159 -27.5t120 -75.5t75.5 -114.5t26.5 -142.5q0 -84 -25.5 -157.5t-74.5 -127t-120 -84t-161 -30.5q-113 0 -202.5 60t-130.5 165h102q14 -35 41 -61.5t58.5 -45 t66.5 -28t65 -9.5q59 0 109.5 24t87.5 66t58.5 100t21.5 128q0 53 -18.5 103.5t-54.5 88t-87 61t-117 23.5q-55 0 -97 -18t-72.5 -49t-51 -72t-31.5 -86h-108q-45 168 -80 288t-74 196.5t-88 113.5t-125 37z" />
<glyph unicode="&#xe57;" horiz-adv-x="1372" d="M45 365q0 94 20.5 161.5t54.5 110.5t76 63.5t83 20.5q59 0 101 -25.5t69.5 -56.5t41 -59.5t15.5 -34.5q0 4 13 31.5t40 60.5t70 58.5t102 25.5q43 0 85 -19.5t76 -62.5t55.5 -110.5t21.5 -163.5q0 -86 -17.5 -160t-38.5 -123q25 2 53.5 12t53 31.5t42 57.5t17.5 89v617 q0 39 9.5 85t35 86t72.5 66.5t123 26.5h29v-86q-53 0 -86 -14.5t-50.5 -38t-22.5 -53t-5 -62.5v-616q0 -76 -23.5 -129.5t-61.5 -87t-84 -50t-91 -16.5h-158q27 41 49 96q18 47 33.5 115t15.5 154q0 57 -8 107t-25.5 87t-47 57.5t-72.5 20.5q-29 0 -59.5 -15.5t-55.5 -46 t-41 -76.5t-16 -108h-64q0 53 -16.5 98.5t-41 78t-55 51t-61.5 18.5q-66 0 -108.5 -62.5t-42.5 -209.5q0 -57 13 -111.5t39.5 -96.5t66.5 -68t96 -26q16 0 29.5 2.5t23.5 6.5t18 10v-84q-8 -4 -18 -8t-24.5 -6t-31.5 -2q-59 0 -116.5 26.5t-102.5 76.5t-71.5 120.5 t-26.5 159.5z" />
<glyph unicode="&#xe58;" horiz-adv-x="1024" d="M45 365q0 66 21.5 130t64.5 114t107.5 81t150.5 31h287q33 0 62.5 6t52 22.5t37 48t14.5 83.5v270h104v-256q0 -141 -69.5 -199.5t-178.5 -58.5h-315q-53 0 -96 -23.5t-74 -62.5t-48.5 -89t-17.5 -104q0 -57 10.5 -110t33 -94t55.5 -66t80 -25q37 0 63.5 19.5t42.5 44.5 q20 27 35 63q20 -37 51 -63q27 -25 67 -44.5t97 -19.5q25 0 53.5 7.5t53 25t40 46t15.5 73.5v53h102v-53q0 -66 -21.5 -111t-58.5 -72.5t-85 -38.5t-99 -11q-57 0 -97 14t-67 31q-31 20 -51 47q-14 -27 -37 -47q-20 -16 -50 -30.5t-77 -14.5q-43 0 -89 23.5t-84 70.5 t-61.5 119.5t-23.5 169.5z" />
<glyph unicode="&#xe59;" horiz-adv-x="1249" d="M45 365q0 94 27.5 164.5t69.5 118.5t93.5 71.5t98.5 23.5q70 0 111.5 -27.5t74.5 -58.5q25 70 70 108t104 38q45 0 80 -22.5t66.5 -50.5t61.5 -50.5t65 -22.5q51 0 76.5 69t25.5 175v250h105v-250q0 -63 -10.5 -122.5t-34 -104.5t-60.5 -72t-92 -27q-59 0 -98 23 t-70 49.5t-56.5 49t-58.5 22.5q-31 0 -54.5 -11.5t-38.5 -28.5t-23.5 -37.5t-8.5 -39.5q0 -14 2 -20l33 -113q8 -27 18.5 -64.5t26 -94t36 -132.5t48.5 -178h-94l-141 506q-6 20 -18.5 48t-33 51.5t-50 40t-72.5 16.5q-29 0 -58.5 -18.5t-56.5 -56.5t-43 -93.5t-16 -128.5 q0 -55 11 -109.5t35.5 -97.5t62.5 -69t93 -26q29 0 49 9q8 4 15 10v-84q4 2 -12.5 -7t-47.5 -9q-61 0 -117.5 26.5t-99.5 76.5t-68.5 120.5t-25.5 159.5z" />
<glyph unicode="&#xe5a;" horiz-adv-x="1024" d="M45 864h105q23 -86 62.5 -135t127.5 -49q90 0 160.5 47t93.5 137h106v-571q0 -74 -6 -128t-26.5 -91t-56.5 -55.5t-95 -18.5v84q20 0 35.5 4t26 24.5t14.5 62.5t4 118v461q-23 -43 -59 -78q-31 -29 -78 -54.5t-113 -25.5q-123 0 -200.5 66.5t-100.5 201.5zM829 0v864h103 v-864h-103z" />
<glyph unicode="&#xe5b;" horiz-adv-x="1443" d="M76 348q0 82 25.5 153.5t72.5 126t112.5 85t143.5 30.5q55 0 100 -11t79 -29.5t58.5 -41t41.5 -47.5q39 -57 51 -129h-101q-12 49 -41 86q-25 33 -69.5 59.5t-118.5 26.5q-55 0 -101 -25.5t-79 -68.5t-51.5 -98t-18.5 -117q0 -57 17.5 -108.5t51.5 -90t82 -62.5t107 -24 q53 0 94 15.5t70 34.5q33 23 55 49l107 -103l80 103l92 -103l84 101q23 -27 45 -49q20 -18 45 -33t53 -15q29 0 47.5 9.5t29.5 23t15.5 26.5t4.5 23q0 25 -5.5 43.5t-11.5 30.5q-8 14 -16 23h106q8 -10 17 -23q6 -10 12 -27.5t6 -41.5q0 -14 -4 -43t-22.5 -56.5t-53.5 -48 t-96 -20.5q-39 0 -70.5 14t-54.5 31q-27 20 -49 47l-84 -101l-94 101l-80 -101l-107 101q-25 -27 -57 -47q-29 -16 -68 -30.5t-90 -14.5q-74 0 -140.5 28.5t-115.5 78.5t-77.5 116.5t-28.5 142.5z" />
<glyph unicode="&#x2000;" horiz-adv-x="921" />
<glyph unicode="&#x2001;" horiz-adv-x="1843" />
<glyph unicode="&#x2002;" horiz-adv-x="921" />
<glyph unicode="&#x2003;" horiz-adv-x="1843" />
<glyph unicode="&#x2004;" horiz-adv-x="614" />
<glyph unicode="&#x2005;" horiz-adv-x="460" />
<glyph unicode="&#x2006;" horiz-adv-x="307" />
<glyph unicode="&#x2007;" horiz-adv-x="307" />
<glyph unicode="&#x2008;" horiz-adv-x="230" />
<glyph unicode="&#x2009;" horiz-adv-x="368" />
<glyph unicode="&#x200a;" horiz-adv-x="102" />
<glyph unicode="&#x2010;" horiz-adv-x="532" d="M76 389v88h381v-88h-381z" />
<glyph unicode="&#x2011;" horiz-adv-x="532" d="M76 389v88h381v-88h-381z" />
<glyph unicode="&#x2012;" horiz-adv-x="532" d="M76 389v88h381v-88h-381z" />
<glyph unicode="&#x2013;" horiz-adv-x="747" d="M76 389v88h596v-88h-596z" />
<glyph unicode="&#x2014;" horiz-adv-x="1136" d="M76 389v88h985v-88h-985z" />
<glyph unicode="&#x2018;" horiz-adv-x="256" d="M76 737v115q0 43 20.5 83t46.5 71q31 37 70 65h76q-33 -39 -56 -76q-20 -33 -36.5 -70.5t-16.5 -72.5v-115h-104z" />
<glyph unicode="&#x2019;" horiz-adv-x="256" d="M-33 737q31 37 53 74q20 33 38 71t18 72v117h104v-117q0 -45 -21.5 -84t-47.5 -67q-31 -35 -68 -66h-76z" />
<glyph unicode="&#x201c;" horiz-adv-x="481" d="M76 737v115q0 43 20.5 83t46.5 71q31 37 70 65h82q-33 -39 -57 -76q-23 -33 -39.5 -70.5t-16.5 -72.5v-115h-106zM285 737v115q0 43 20.5 83t46.5 71q29 37 68 65h82q-33 -39 -56 -76q-23 -33 -39 -70.5t-16 -72.5v-115h-106z" />
<glyph unicode="&#x201d;" horiz-adv-x="481" d="M-33 737q31 37 53 74q20 33 38 71t18 72v117h106v-117q0 -45 -21.5 -84t-45.5 -67q-31 -35 -68 -66h-80zM172 737q31 37 55 74q23 33 40.5 71t17.5 72v117h106v-117q0 -45 -21.5 -84t-47.5 -67q-31 -35 -68 -66h-82z" />
<glyph unicode="&#x2022;" horiz-adv-x="505" d="M76 436q0 76 52 127t126 51q76 0 127 -51t51 -127q0 -74 -51 -126t-127 -52q-74 0 -126 52t-52 126z" />
<glyph unicode="&#x2026;" horiz-adv-x="1116" d="M76 0v109h104v-109h-104zM506 0v109h104v-109h-104zM936 0v109h104v-109h-104z" />
<glyph unicode="&#x202f;" horiz-adv-x="368" />
<glyph unicode="&#x205f;" horiz-adv-x="460" />
<glyph unicode="&#x20ac;" horiz-adv-x="1013" d="M76 340v92h102v51v30.5t2 31.5h-104v94h119q37 168 163.5 269.5t313.5 101.5q66 0 140.5 -7.5t123.5 -29.5l-35 -86q-59 29 -111.5 33t-117.5 4q-139 0 -236.5 -76t-136.5 -209h414v-94h-428q-2 -16 -2 -30.5v-31.5v-26.5t2 -24.5h387v-92h-375q35 -129 131 -203t244 -74 q39 0 68.5 3.5t55 10.5t51 17t54.5 27l35 -86q-59 -35 -130 -44t-147 -9q-184 0 -306 95t-163 263h-114z" />
<glyph unicode="&#x2122;" horiz-adv-x="792" d="M76 963v30h235v-30h-96v-314h-39v314h-100zM362 649v344h54l121 -284l131 284h45v-344h-31v291l-135 -291h-21l-127 291v-291h-37z" />
<glyph unicode="&#x25fc;" horiz-adv-x="716" d="M0 0v717h717v-717h-717z" />
<glyph horiz-adv-x="829" d="M45 711q23 49 64 86q35 33 95 60.5t158 27.5q88 0 160 -27q20 6 48 16.5t52.5 25.5t41 35.5t16.5 49.5h104q0 -41 -16 -69.5t-43 -48t-57.5 -32t-59.5 -20.5q84 -59 129 -154.5t45 -207.5q0 -88 -23.5 -170t-69.5 -144.5t-115.5 -100.5t-161.5 -38h-103l-84 332 q-6 16 -16 17t-27 1h-37v84h78q47 0 61.5 -13t22.5 -30l90 -307q76 0 129.5 33t87 86t49 118.5t15.5 131.5q0 88 -27.5 153.5t-71.5 109.5t-101.5 65.5t-115.5 21.5q-76 0 -128 -29t-87 -63q-39 -41 -65 -93z" />
<glyph horiz-adv-x="1392" d="M45 668q31 59 80 108q41 41 106.5 75t161.5 34q66 0 135.5 -14.5t126 -48.5t92 -87t35.5 -129v-321q0 -35 7.5 -74t26 -72t51 -54.5t83.5 -21.5h86q51 0 86 21.5t54.5 54.5t27.5 72t8 74v579h105v-571q0 -59 -14.5 -115.5t-44 -99.5t-76.5 -69.5t-115 -26.5h-164 q-70 0 -114 27.5t-68.5 71.5t-32.5 100.5t-8 111.5v272q0 74 -27.5 120t-70.5 71.5t-94.5 35t-96.5 9.5q-59 0 -103 -21.5t-77 -46.5q-37 -29 -66 -65l121 -103q-10 -14 -18 -37q-6 -20 -11.5 -49.5t-5.5 -77.5v-276q0 -16 2.5 -27.5t18.5 -13.5h59v-84h-73q-53 0 -82 28.5 t-29 106.5v266q0 39 6 69t14 52q8 25 21 43q-35 29 -62 51q-23 18 -42 34t-19 18z" />
<glyph d="M-707 1155q0 53 20.5 85t49.5 47.5t58.5 19.5t46.5 4h122q47 0 76 7t47 17q20 10 33 27l-2 -84q-10 -12 -31 -21q-16 -8 -45.5 -13t-77.5 -5h-102q-61 0 -82.5 -24.5t-21.5 -59.5q0 -18 7 -41.5t36 -23.5q23 0 36 9t19 19q8 12 8 31h39q4 -18 12 -31q6 -10 17.5 -19 t31.5 -9q37 0 51.5 21.5t14.5 37.5h90q0 -55 -39 -93t-96 -38q-23 0 -41.5 5t-32.5 11q-16 8 -29 19q-8 -10 -20 -19q-12 -6 -31.5 -11t-50.5 -5q-12 0 -31.5 6t-37 22.5t-31 42t-13.5 66.5z" />
<glyph d="M-399 1530h131q31 0 56.5 -25.5t25.5 -56.5q0 -16 12 -28.5t29 -12.5h172l-31 -86h-193q-47 0 -74.5 26.5t-27.5 57.5q0 27 -12.5 34t-24.5 7h-61z" />
<glyph d="M-481 1405q0 55 39 95t98 40q20 0 33.5 -6t21.5 -14q9 -9 15 -19q4 10 12 19q8 8 20.5 14t34.5 6q59 0 90 -30.5t29 -71.5q0 -16 6 -18.5t16 -2.5h93l-31 -86h-82q-57 0 -73.5 25.5t-16.5 56.5q0 25 -13.5 39t-27.5 14q-20 0 -28.5 -19.5t-8.5 -41.5h-41q0 20 -9 40.5 t-26 20.5q-16 0 -31.5 -16t-15.5 -45q0 -35 19 -57q8 -10 20 -17h-106q-10 6 -19 17q-18 23 -18 57z" />
<glyph horiz-adv-x="1433" d="M45 668q31 59 80 108q41 41 106.5 75t159.5 34q49 0 99.5 -7.5t96.5 -24.5t85 -43t67 -62q8 14 25.5 37.5t48.5 45t76 38t108 16.5q55 0 116 -17.5t111 -56.5t81.5 -99.5t31.5 -146.5v-878q0 -29 -12 -48.5t-27 -35.5q-16 -18 -36 -31h-29v973q0 131 -75 193.5t-181 62.5 q-74 0 -114 -28t-57.5 -62.5t-20.5 -64.5t-3 -32v-927q0 -29 -11 -48.5t-26 -35.5q-16 -18 -36 -31h-31v993q0 74 -27.5 119t-68.5 71.5t-92.5 36t-96.5 9.5q-59 0 -105 -21.5t-79 -46.5q-37 -29 -66 -65l123 -103l-5 -7t-11 -26.5t-12.5 -51t-6.5 -79.5v-276q0 -41 26 -41 h54v-84h-71q-59 0 -86 30.5t-27 104.5v266q0 39 6 69t14 52q8 25 21 43q-35 29 -62 51q-23 18 -42 34t-19 18z" />
<glyph horiz-adv-x="1433" d="M43 0v84h61q12 2 17.5 17.5t5.5 38t-1 46t-1 41.5l2 174q0 39 6 69t14 52q8 25 21 43q-35 29 -62 51q-23 18 -42 34t-19 18q31 59 80 108q41 41 106.5 75t157.5 34q49 0 100.5 -7.5t97.5 -24.5t86 -43t66 -62q8 14 25.5 37.5t48.5 46t76 38t108 15.5q55 0 116 -17.5 t111 -56.5t81.5 -99.5t31.5 -146.5v-878q0 -29 -12 -48.5t-27 -35.5q-16 -18 -36 -31h-29v973q0 131 -75 193.5t-181 62.5q-92 0 -134 -39t-55.5 -87t-9.5 -90t4 -46v-852q0 -29 -11 -48.5t-26 -35.5q-16 -18 -36 -31h-31v993q0 76 -27.5 122t-70.5 71.5t-94.5 34t-96.5 8.5 q-59 0 -103 -21.5t-77 -46.5q-37 -29 -66 -65l123 -103q-10 -14 -18 -37q-8 -20 -13.5 -49.5t-5.5 -77.5v-266q0 -78 -27.5 -106.5t-86.5 -28.5h-72z" />
</font>
</defs>
</svg>
